Статистика раздачи
Размер:  27,76 GB   |    Зарегистрирован:  6 месяцев 23 дня   |    Скачан:  0 раз
DL-List: Нет

Полного источника не было: Никогда

 
     
 
 

MAGNAT ®

Пол:
Мужской
Стаж:
1 год 3 месяца
Сообщений:
8784

К звёздам / Ad Astra
«Ответы на наши вопросы лежат за пределами досягаемости»
Страна: Китай, Бразилия, США
Жанр: Фантастика, триллер, драма, детектив, приключения
Год выпуска: 2019
Продолжительность: 02:03:02-Перевод: Профессиональный (дублированный) | (iTunes)
Cубтитры: Русские (Forced, full), украинские (Forced, full), английские (SDH)
Оригинальная аудиодорожка: Английский-Режиссёр: Джеймс Грэй / James Gray
В ролях: Брэд Питт, Томми Ли Джонс, Рут Негга, Дональд Сазерленд, Кимберли Элиз, Лорен Дин, Донни Кешаварц, Шон Блейкмор, Бобби Ниш, Лиза Гэй Хэмилтон
Описание: Недалёкое будущее. Несколько лет назад человечество запустило программу поиска внеземной жизни «Проект «Лима»», во главе которой стоял капитан Клиффорд Макбрайд. Последний сигнал экспедиции был зафиксирован в районе Нептуна, и с тех пор о её судьбе ничего не было известно. Сам капитан Макбрайд стал героем и самым известным космонавтом, вдохновившим многих на исследование космоса. Через 16 лет после исчезновения «Проекта «Лима»» на Земле начинают происходить странные вспышки энергии, выводящие из строя электросистемы и сеящие хаос и разрушения. По данным американского космического агентства сигнал идёт с Нептуна, и теперь сыну знаменитого космонавта, майору Рою Макбрайду, поручается ответственная миссия. Он должен добраться до марсианской базы и оттуда попытаться связаться с предположительно живым отцом.-Тип релиза: BDRemux 1080p
Контейнер: MKV-Видео: MPEG-4 AVC Video 26887 kbps 1080p / 23,976 fps / 16:9 / High Profile 4.1
Аудио 1: Русский | AC-3, 6 ch, 384 Kbps, 48.0 KHz Dub iTunes
Аудио 2: Украинский | AC-3, 2.0 ch, 160 Kbps, 48.0 KHz Dub iTunes
Аудио 3: Английский | DTS-HD MA, 8.0 ch, 4643 Kbps, 48.0 KHz, 24-bit (DTS Core: 5.1 / 48 kHz / 1509 kbps / 24-bit)
Аудио 4: Английский | AC-3, 2.0 ch, 224 Kbps, 48.0 KHz Commentary by Director James Gray
-

MediaInfo

Код:General
Unique ID : 189685666869300676015768395943384552691 (0x8EB4216DFBC5AE3580E6E84575A594F3)
Complete name : /Volumes/Promise 2/Ad.Astra.BDRemux.1080p.pk.mkv
Format : Matroska
Format version : Version 4
File size : 27.8 GiB
Duration : 2h 3mn
Overall bit rate mode : Variable
Overall bit rate : 32.3 Mbps
Movie name : Ad Astra BDRemux 1080p pk
Encoded date : UTC 2019-12-10 23:46:55
Writing application : mkvmerge v41.0.0 ('Smarra') 64-bit
Writing library : libebml v1.3.9 + libmatroska v1.5.2
Video
ID : 1
Format : AVC
Format/Info : Advanced Video Codec
Format profile : High@L4.1
Format settings : CABAC / 2 Ref Frames
Format settings, CABAC : Yes
Format settings, ReFrames : 2 frames
Codec ID : V_MPEG4/ISO/AVC
Duration : 2h 3mn
Bit rate mode : Variable
Bit rate : 26.9 Mbps
Width : 1 920 pixels
Height : 1 080 pixels
Display aspect ratio : 16:9
Frame rate mode : Constant
Frame rate : 23.976 (24000/1001) fps
Color space : YUV
Chroma subsampling : 4:2:0
Bit depth : 8 bits
Scan type : Progressive
Bits/(Pixel*Frame) : 0.541
Stream size : 23.1 GiB (83%)
Language : English
Default : Yes
Forced : No
Audio #1
ID : 2
Format : AC-3
Format/Info : Audio Coding 3
Commercial name : Dolby Digital
Codec ID : A_AC3
Duration : 2h 3mn
Bit rate mode : Constant
Bit rate : 384 Kbps
Channel(s) : 6 channels
Channel layout : L R C LFE Ls Rs
Sampling rate : 48.0 KHz
Frame rate : 31.250 fps (1536 SPF)
Compression mode : Lossy
Stream size : 338 MiB (1%)
Title : Russian Dub iTunes
Language : Russian
Service kind : Complete Main
Default : Yes
Forced : No
Audio #2
ID : 3
Format : AC-3
Format/Info : Audio Coding 3
Commercial name : Dolby Digital
Codec ID : A_AC3
Duration : 2h 3mn
Bit rate mode : Constant
Bit rate : 160 Kbps
Channel(s) : 2 channels
Channel layout : L R
Sampling rate : 48.0 KHz
Frame rate : 31.250 fps (1536 SPF)
Compression mode : Lossy
Stream size : 141 MiB (0%)
Title : Ukrainian Dub iTunes
Language : Ukrainian
Service kind : Complete Main
Default : No
Forced : No
Audio #3
ID : 4
Format : DTS XLL
Format/Info : Digital Theater Systems
Commercial name : DTS-HD Master Audio
Codec ID : A_DTS
Duration : 2h 3mn
Bit rate mode : Variable
Bit rate : 4 643 Kbps
Channel(s) : 8 channels
Channel layout : C L R LFE Lb Rb Lss Rss
Sampling rate : 48.0 KHz
Frame rate : 93.750 fps (512 SPF)
Bit depth : 24 bits
Compression mode : Lossless
Stream size : 3.99 GiB (14%)
Title : English Original
Language : English
Default : No
Forced : No
Audio #4
ID : 5
Format : AC-3
Format/Info : Audio Coding 3
Commercial name : Dolby Digital
Codec ID : A_AC3
Duration : 2h 3mn
Bit rate mode : Constant
Bit rate : 224 Kbps
Channel(s) : 2 channels
Channel layout : L R
Sampling rate : 48.0 KHz
Frame rate : 31.250 fps (1536 SPF)
Compression mode : Lossy
Delay relative to video : 29ms
Stream size : 197 MiB (1%)
Title : Commentary by Director James Gray
Language : English
Service kind : Complete Main
Default : No
Forced : No
Text #1
ID : 6
Format : UTF-8
Codec ID : S_TEXT/UTF8
Codec ID/Info : UTF-8 Plain Text
Duration : 2h 2mn
Bit rate : 1 bps
Count of elements : 22
Stream size : 941 Bytes (0%)
Title : Russian forced
Language : Russian
Default : Yes
Forced : Yes
Text #2
ID : 7
Format : UTF-8
Codec ID : S_TEXT/UTF8
Codec ID/Info : UTF-8 Plain Text
Duration : 2h 2mn
Bit rate : 68 bps
Count of elements : 1074
Stream size : 61.6 KiB (0%)
Title : Russian full
Language : Russian
Default : No
Forced : No
Text #3
ID : 8
Format : UTF-8
Codec ID : S_TEXT/UTF8
Codec ID/Info : UTF-8 Plain Text
Duration : 2h 2mn
Bit rate : 1 bps
Count of elements : 27
Stream size : 1.17 KiB (0%)
Title : Ukrainian forced
Language : Ukrainian
Default : No
Forced : No
Text #4
ID : 9
Format : UTF-8
Codec ID : S_TEXT/UTF8
Codec ID/Info : UTF-8 Plain Text
Duration : 2h 2mn
Bit rate : 68 bps
Count of elements : 1082
Stream size : 61.3 KiB (0%)
Title : Ukrainian full
Language : Ukrainian
Default : No
Forced : No
Text #5
ID : 10
Format : UTF-8
Codec ID : S_TEXT/UTF8
Codec ID/Info : UTF-8 Plain Text
Duration : 1h 50mn
Bit rate : 50 bps
Count of elements : 1389
Stream size : 41.1 KiB (0%)
Title : English SDH
Language : English
Default : No
Forced : No
Menu
00:00:00.000 : en:Chapter 01
00:04:22.679 : en:Chapter 02
00:08:48.695 : en:Chapter 03
00:16:25.776 : en:Chapter 04
00:22:33.811 : en:Chapter 05
00:30:08.515 : en:Chapter 06
00:35:08.273 : en:Chapter 07
00:40:33.348 : en:Chapter 08
00:44:45.391 : en:Chapter 09
00:48:56.809 : en:Chapter 10
00:53:51.812 : en:Chapter 11
00:56:43.775 : en:Chapter 12
01:01:31.897 : en:Chapter 13
01:07:23.873 : en:Chapter 14
01:12:12.411 : en:Chapter 15
01:16:59.114 : en:Chapter 16
01:21:35.182 : en:Chapter 17
01:24:42.661 : en:Chapter 18
01:31:16.554 : en:Chapter 19
01:36:27.031 : en:Chapter 20
01:40:59.595 : en:Chapter 21
01:46:26.589 : en:Chapter 22
01:50:00.052 : en:Chapter 23
01:53:17.791 : en:Chapter 24

Скриншоты

[cybertorrent.net].t9813.torrent 
Торрент: Зарегистрирован [ 2019-12-15 15:44 ] · 0347257DEFBAED207FEF510B01EE5E8D1625BF81

Скачать .torrent

Скачать

278 KB

Статус: проверено
Скачан: 0 раз
Размер: 27,76 GB  ·  Тип торрента
terms.php
Профиль [ЛС]
Показать сообщения:    

Текущее время: 08-Июл 11:10

Часовой пояс: UTC ± 0



Вы не можете начинать темы
Вы не можете отвечать на сообщения
Вы не можете редактировать свои сообщения
Вы не можете удалять свои сообщения
Вы не можете голосовать в опросах
Вы не можете прикреплять файлы к сообщениям
Вы можете скачивать файлы