Статистика раздачи
Размер:  1,45 GB   |    Зарегистрирован:  8 месяцев 20 дней   |    Скачан:  0 раз

Полного источника не было: Никогда

 
     
 
 

Гость ®

Пол:
Не указан

Капитан "Пилигрима"- Жанр: приключения
Год выпуска: 1986
Продолжительность: 01:27:26
Субтитры: русские-Режиссёр: Андрей Праченко-В ролях:
Альберт Филозов, Леонид Ярмольник, Юрий Дубровин, Лев Дуров, Вячеслав Ходченко, Нодар Мгалоблишвили, Татьяна Паркина, Вергилио Эчмендия, Андрей Фурманчук, Эрменгельд Коновалов, Хосе Васкес, Юрий Рудченко
Описание:
По мотивам романа Жюля Верна "Пятнадцатилетний капитан". Парусник «Пилигрим» не может уйти в плавание, потому что на борту нет кока. Отчаявшись найти подходящую кандидатуру, капитан Гуль решает взять на вакантное место некоего Негоро, случайно попавшегося ему в порту. Когда выясняется, что тот недавно сбежал из тюрьмы, уже слишком поздно. Негоро захватывает парусник и, изменив показания приборов, ведет его к побережью Африки.-Исходник | Сэмпл | Кинопоиск-Качество видео: DVDRip-AVC, за исходник спасибо casperG.
Формат видео: MKV
Видео: x264 (High@L4.1); 696@794x378 25.000 fps; Display aspect ratio: 2.101:1; 2185 Kbps
Аудио: Оригинал: AC-3; 16 bits 48 Khz; 2.0ch 192 Kbps; CBR
Формат субтитров: softsub (SRT)

Доп. инфо

MediaInfo

x264 log

avs [info]: 696x378p 81:71 @ 25/1 fps (cfr)
x264 [info]: using SAR=81/71
x264 [info]: using cpu capabilities: MMX2 SSE2Fast SSSE3 SSE4.2
x264 [info]: profile High, level 4.1
x264 [info]: frame I:765 Avg QP:17.64 size: 47181
x264 [info]: frame P:28189 Avg QP:20.07 size: 20226
x264 [info]: frame B:102218 Avg QP:22.12 size: 8089
x264 [info]: consecutive B-frames: 1.3% 2.0% 5.6% 28.1% 20.1% 34.4% 5.6% 2.0% 0.6% 0.3%
x264 [info]: mb I I16..4: 6.1% 73.1% 20.8%
x264 [info]: mb P I16..4: 0.1% 15.2% 1.9% P16..4: 27.9% 37.1% 15.2% 2.4% 0.2% skip: 0.0%
x264 [info]: mb B I16..4: 0.0% 1.5% 0.2% B16..8: 39.0% 27.9% 5.5% direct:12.3% skip:13.6% L0:38.7% L1:37.3% BI:24.0%
x264 [info]: 8x8 transform intra:86.7% inter:58.3%
x264 [info]: direct mvs spatial:96.0% temporal:4.0%
x264 [info]: coded y,uvDC,uvAC intra: 98.7% 80.2% 50.1% inter: 55.8% 32.5% 6.7%
x264 [info]: i16 v,h,dc,p: 5% 9% 34% 52%
x264 [info]: i8 v,h,dc,ddl,ddr,vr,hd,vl,hu: 10% 15% 6% 8% 12% 11% 13% 11% 14%
x264 [info]: i4 v,h,dc,ddl,ddr,vr,hd,vl,hu: 11% 13% 3% 7% 14% 14% 15% 11% 14%
x264 [info]: i8c dc,h,v,p: 34% 29% 20% 17%
x264 [info]: Weighted P-Frames: Y:35.9% UV:22.0%
x264 [info]: ref P L0: 37.0% 13.1% 15.1% 8.1% 5.4% 4.3% 3.5% 2.2% 1.9% 1.7% 1.5% 1.4% 1.3% 1.2% 1.2% 0.9%
x264 [info]: ref B L0: 78.8% 8.4% 3.7% 2.1% 1.5% 1.2% 1.0% 0.6% 0.5% 0.5% 0.4% 0.4% 0.4% 0.3% 0.1%
x264 [info]: ref B L1: 96.7% 3.3%
x264 [info]: kb/s:2185.07
-General
Unique ID : 173805638743991116377795202681095147538 (0x82C1BF983190CFAD8F8F1B8F8CE15012)
Complete name : Капитан Пилигрима.1986.mkv
Format : Matroska
Format version : Version 2
File size : 1.45 GiB
Duration : 1 h 27 min
Overall bit rate : 2 379 kb/s
Encoded date : UTC 2017-10-28 12:13:31
Writing application : mkvmerge v7.8.0 ('River Man') 32bit built on Mar 27 2015 16:18:02
Writing library : libebml v1.3.1 + libmatroska v1.4.2
Video
ID : 1
Format : AVC
Format/Info : Advanced Video Codec
Format profile : High@L4.1
Format settings, CABAC : Yes
Format settings, ReFrames : 16 frames
Codec ID : V_MPEG4/ISO/AVC
Duration : 1 h 27 min
Bit rate : 2 185 kb/s
Width : 696 pixels
Height : 378 pixels
Display aspect ratio : 2.101
Frame rate mode : Constant
Frame rate : 25.000 FPS
Color space : YUV
Chroma subsampling : 4:2:0
Bit depth : 8 bits
Scan type : Progressive
Bits/(Pixel*Frame) : 0.332
Stream size : 1.31 GiB (90%)
Title : Капитан "Пилигрима".1986
Writing library : x264 core 152 r2851kMod ba24899
Encoding settings : cabac=1 / ref=16 / deblock=1:-2:-2 / analyse=0x3:0x133 / me=umh / subme=11 / psy=1 / fade_compensate=0.00 / psy_rd=1.05:0.15 / mixed_ref=1 / me_range=32 / chroma_me=1 / trellis=2 / 8x8dct=1 / cqm=0 / deadzone=21,11 / fast_pskip=0 / chroma_qp_offset=-3 / threads=12 / lookahead_threads=2 / sliced_threads=0 / nr=0 / decimate=0 / interlaced=0 / bluray_compat=0 / constrained_intra=0 / bframes=9 / b_pyramid=2 / b_adapt=2 / b_bias=0 / direct=3 / weightb=1 / open_gop=0 / weightp=2 / keyint=250 / keyint_min=25 / scenecut=40 / intra_refresh=0 / rc_lookahead=60 / rc=2pass / mbtree=0 / bitrate=2185 / ratetol=1.0 / qcomp=0.60 / qpmin=0 / qpmax=40 / qpstep=4 / cplxblur=20.0 / qblur=0.5 / vbv_maxrate=50000 / vbv_bufsize=62500 / nal_hrd=none / filler=0 / ip_ratio=1.35 / pb_ratio=1.30 / aq=1:0.50
Language : Russian
Default : Yes
Forced : No
Color range : Limited
Color primaries : BT.601 PAL
Transfer characteristics : BT.470 System B, BT.470 System G
Matrix coefficients : BT.601
Audio
ID : 2
Format : AC-3
Format/Info : Audio Coding 3
Mode extension : CM (complete main)
Format settings, Endianness : Big
Codec ID : A_AC3
Duration : 1 h 27 min
Bit rate mode : Constant
Bit rate : 192 kb/s
Channel(s) : 2 channels
Channel positions : Front: L R
Sampling rate : 48.0 kHz
Frame rate : 31.250 FPS (1536 spf)
Compression mode : Lossy
Stream size : 120 MiB (8%)
Title : Оригинал: AC-3; 16 bits 48 Khz; 2.0ch 192 Kbps; CBR
Language : Russian
Default : Yes
Forced : No
Text
ID : 3
Format : UTF-8
Codec ID : S_TEXT/UTF8
Codec ID/Info : UTF-8 Plain Text
Title : Субтитры русские
Language : Russian
Default : No
Forced : No
[cybertorrent.net].t95.torrent 
Торрент: Зарегистрирован [ 2019-03-18 10:04 ] · A090D7DB199AA8A01BE3F2BB07F8B9D260F16938

Скачать .torrent

Скачать

15 KB

Статус: проверено
Скачан: 0 раз
Размер: 1,45 GB
terms.php
Показать сообщения:    

Текущее время: 07-Дек 12:27

Часовой пояс: UTC ± 0



Вы не можете начинать темы
Вы не можете отвечать на сообщения
Вы не можете редактировать свои сообщения
Вы не можете удалять свои сообщения
Вы не можете голосовать в опросах
Вы не можете прикреплять файлы к сообщениям
Вы можете скачивать файлы