Статистика раздачи
Размер:  510 MB   |    Зарегистрирован:  7 месяцев 27 дней   |    Скачан:  0 раз

Полного источника не было: Никогда

 
     
 
 

Гость ®

Пол:
Не указан

Чёрная курица, или подземные жители
Жанр: детский, семейный
Год выпуска: 1980
Продолжительность: 01:09:22
Режиссёр: Виктор Гресь
В ролях: Виталий Сидлецкий, Лариса Кадочникова, Аристарх Ливанов, Альберт Филозов, Владимир Кашпур, Валентин Гафт, Евгений Евстигнеев, Людмила Сосюра, Алеша Черствов, Виолетта Жухимович, Николай Сектименко
Описание: В петербургском пансионе для Алеши началась новая, без привычного родительского внимания, жизнь. Тоскуя по дому, мальчик создал в своем воображении сказочный мир подземных жителей - с тайной, королем и подданными, очень похожими на окружавших его людей.
Доп. информация: Запись потока *.ts со спутника EUTELSAT 36A/B, 36° в.д., ремукс в *.mkv программой VideoReDo..
Качество видео: DVB
Формат видео: MKV
Видео: Advanced Video Codec, 720(1048)x576 (16:9), 25,000 кадров/сек, 816 Кбит/сек
Аудио: MPEG Audio, 48,0 КГц, 192 Кбит/сек, 2 канала

MediaInfo

General
Unique ID : 102265546817294199422524589769021379781 (0x4CEFA0BD5D07BEE2250F9F315E8AD4C5)
Complete name : E:\MOVIE RUS\ХУД\ЧЁРНАЯ КУРИЦА (ОТР).mkv
Format : Matroska
Format version : Version 2
File size : 510 MiB
Duration : 1 h 9 min
Overall bit rate : 1 028 kb/s
Writing application : Lavf52.64.2
Writing library : Lavf52.64.2
Video
ID : 1
Format : AVC
Format/Info : Advanced Video Codec
Format profile : High@L3
Format settings : CABAC / 4 Ref Frames
Format settings, CABAC : Yes
Format settings, RefFrames : 4 frames
Format settings, GOP : M=4, N=28
Codec ID : V_MPEG4/ISO/AVC
Duration : 1 h 9 min
Bit rate : 816 kb/s
Width : 720 pixels
Height : 576 pixels
Display aspect ratio : 16:9
Original display aspect rat : 16:9
Frame rate mode : Constant
Frame rate : 25.000 FPS
Standard : Component
Color space : YUV
Chroma subsampling : 4:2:0
Bit depth : 8 bits
Scan type : Interlaced
Scan type, store method : Separated fields
Scan order : Top Field First
Bits/(Pixel*Frame) : 0.079
Stream size : 405 MiB (79%)
Default : Yes
Forced : No
Color range : Limited
Color primaries : BT.601 PAL
Transfer characteristics : BT.470 System B, BT.470 System G
Matrix coefficients : BT.470 System B, BT.470 System G
Audio
ID : 2
Format : MPEG Audio
Format version : Version 1
Format profile : Layer 2
Codec ID : A_MPEG/L2
Codec ID/Hint : MP2
Duration : 1 h 9 min
Bit rate mode : Constant
Bit rate : 192 kb/s
Channel(s) : 2 channels
Sampling rate : 48.0 kHz
Compression mode : Lossy
Stream size : 95.3 MiB (19%)
Language : Russian
Default : Yes
Forced : No
[cybertorrent.net].t92.torrent 
Торрент: Зарегистрирован [ 2019-03-18 10:04 ] · 9EF2E2024853CA0092EEB50681F92DB3F3FE7ADC

Скачать .torrent

Скачать

20 KB

Статус: проверено
Скачан: 0 раз
Размер: 510 MB
terms.php
Показать сообщения:    

Текущее время: 14-Ноя 16:48

Часовой пояс: UTC ± 0



Вы не можете начинать темы
Вы не можете отвечать на сообщения
Вы не можете редактировать свои сообщения
Вы не можете удалять свои сообщения
Вы не можете голосовать в опросах
Вы не можете прикреплять файлы к сообщениям
Вы можете скачивать файлы