Статистика раздачи
Размер:  741 MB   |    Зарегистрирован:  1 месяц 6 дней   |    Скачан:  0 раз

Полного источника не было: Никогда

 
     
 
 

Floyd ®

Пол:
Мужской
Стаж:
8 месяцев 15 дней
Сообщений:
1547

-Старые счеты / A Score to Settle-- -Страна: Канада, США
Жанр: боевик, триллер, драма
Год выпуска: 2019
Продолжительность: 01:43:42-Перевод: Любительский (многоголосый закадровый) Mallorn Studio
Субтитры: нет
Оригинальная аудиодорожка: нет-Режиссер: Шоун Ку / Shawn Ku-В ролях: Николас Кейдж, Бенджамин Брэтт, Ноа Ле Грос, Мохамед Карим, Каролина Выдра, Иэн Трейси, Николь Муньос, Кармел Амит, Николь Дж. Лейер-Описание: Отсидев 19 лет в тюрьме за несовершенное преступление, Фрэнк выходит на свободу. Ему придется сделать выбор - наверстать упущенные годы с сыном или отомстить людям, которых он считал друзьями. Удастся ли Фрэнку начать жизнь сначала?...-Качество видео: HDRip-AVC / BDRip 1080p
Формат видео: MKV-Видео: MPEG-4 AVC, 748x314 (2.40:1), 23.976 fps, ~812 kbps avg, 0.144 bit/pixel
Аудио: 48 kHz, AC3 Dolby Digital, 2/0 (L,R) ch, ~192 kbps avg-

MediaInfo

Код:Complete name : D:\Раздача\Старые счеты (2019) HDRip-AVC_ivanes.mkv
Format : Matroska
Format version : Version 2
File size : 741 MiB
Duration : 1 h 43 min
Overall bit rate : 999 kb/s
Movie name : Старые счеты (2019) HDRip-AVC_ivanes
Encoded date : UTC 2019-11-05 19:02:48
Writing application : mkvmerge v4.4.0 ('Die Wiederkehr') сборка от Jan 3 2011 21:40:45
Writing library : libebml v1.0.0 + libmatroska v1.0.0
Cover : Yes
Attachments : cover.jpg
Video
ID : 1
Format : AVC
Format/Info : Advanced Video Codec
Format profile : High@L4.1
Format settings : CABAC / 11 Ref Frames
Format settings, CABAC : Yes
Format settings, Reference : 11 frames
Codec ID : V_MPEG4/ISO/AVC
Duration : 1 h 43 min
Bit rate : 812 kb/s
Width : 748 pixels
Height : 314 pixels
Display aspect ratio : 2.40:1
Frame rate mode : Constant
Frame rate : 23.976 (24000/1001) FPS
Color space : YUV
Chroma subsampling : 4:2:0
Bit depth : 8 bits
Scan type : Progressive
Bits/(Pixel*Frame) : 0.144
Stream size : 584 MiB (79%)
Title : Rip by ivanes
Writing library : x264 core 158 r2984+49 6932f4a t_mod_New [0-bit@all X86]
Encoding settings : cabac=1 / ref=11 / deblock=1:-3:-3 / analyse=0x3:0x113 / me=umh / subme=10 / psy=1 / fade_compensate=0.00 / psy_rd=1.00:0.00 / mixed_ref=1 / me_range=32 / chroma_me=1 / trellis=2 / 8x8dct=1 / cqm=0 / deadzone=21,11 / fast_pskip=0 / chroma_qp_offset=-2 / threads=12 / lookahead_threads=2 / sliced_threads=0 / nr=0 / decimate=1 / interlaced=0 / bluray_compat=0 / constrained_intra=0 / fgo=0 / bframes=11 / b_pyramid=2 / b_adapt=2 / b_bias=0 / direct=1 / weightb=1 / open_gop=0 / weightp=2 / keyint=240 / keyint_min=23 / scenecut=40 / intra_refresh=0 / rc_lookahead=60 / rc=2pass / mbtree=0 / bitrate=812 / ratetol=1.0 / qcomp=0.60 / qpmin=0:0:0 / qpmax=69:69:69 / qpstep=4 / cplxblur=20.0 / qblur=0.5 / vbv_maxrate=50000 / vbv_bufsize=62500 / nal_hrd=none / filler=0 / ip_ratio=1.40 / pb_ratio=1.30 / aq=1:1.00 / aq-sensitivity=10.00 / aq-factor=1.00:1.00:1.00 / aq2=0 / aq3=0
Default : Yes
Forced : No
Statistics Tags Issue : mkvmerge v29.0.0 ('Like It Or Not') 64-bit 2019-11-05 19:01:52 / mkvmerge v4.4.0 ('Die Wiederkehr') сборка от Jan 3 2011 21:40:45 2019-11-05 19:02:48
FromStats_BitRate : 805518
FromStats_Duration : 01:43:42.675000000
FromStats_FrameCount : 149195
FromStats_StreamSize : 626559936
Audio
ID : 2
Format : AC-3
Format/Info : Audio Coding 3
Commercial name : Dolby Digital
Codec ID : A_AC3
Duration : 1 h 43 min
Bit rate mode : Constant
Bit rate : 192 kb/s
Channel(s) : 2 channels
Channel layout : L R
Sampling rate : 48.0 kHz
Frame rate : 31.250 FPS (1536 SPF)
Compression mode : Lossy
Stream size : 142 MiB (19%)
Title : Mallorn Studio
Language : Russian
Service kind : Complete Main
Default : Yes
Forced : No

Скриншоты

[cybertorrent.net].t9001.torrent 
Торрент: Зарегистрирован [ 2019-11-06 09:58 ] · 7951A53FB2DA102697665B8A158B829D0532E654

Скачать .torrent

Скачать

15 KB

Статус: проверено
Скачан: 0 раз
Размер: 741 MB
terms.php
Профиль [ЛС]
Показать сообщения:    

Текущее время: 12-Дек 20:14

Часовой пояс: UTC ± 0



Вы не можете начинать темы
Вы не можете отвечать на сообщения
Вы не можете редактировать свои сообщения
Вы не можете удалять свои сообщения
Вы не можете голосовать в опросах
Вы не можете прикреплять файлы к сообщениям
Вы можете скачивать файлы