Статистика раздачи
Размер:  745 MB   |    Зарегистрирован:  8 месяцев 3 дня   |    Скачан:  0 раз

Полного источника не было: Никогда

 
     
 
 

Гость ®

Пол:
Не указан

Эй вы, ковбои!- Страна: СССР
Студия: Казахфильм
Жанр: детский, мелодрама
Год выпуска: 1974
Продолжительность: 01:03:23
Перевод: Профессиональный (дублированный) - Студия "Ленфильм"-Режиссёр: Абдулла Карсакбаев
В ролях: Чинара Берсугурова, Марат Ботабаев, Бахыт Шарденов, Алдан Байсеитов, Еркин Кенжебаев, Арыстан Шарденов, Канабек Байсеитов, Макиль Куланбаев, Алдаберген Нурбеков, Аскар Сейтказин...-Описание: О школьниках одного из казахских аулов, которые поклялись друг другу выиграть межколхозные спортивные состязания.-Релиз: -Семпл: http://sendfile.su/1368431-Качество: SATRip
Формат: AVI
Видео: 640x480 (1.33:1), 25 fps, XviD build 67 ~1521 kbps avg, 0.20 bit/pixel
Аудио: Russian, 48 kHz, AC3 Dolby Digital, 1/0 (C) ch, ~112 kbps

MediaInfo

General
Complete name : Эй вы, ковбои! 1974 Казахфильм.avi
Format : AVI
Format/Info : Audio Video Interleave
File size : 745 MiB
Duration : 1 h 3 min
Overall bit rate : 1 644 kb/s
Writing application : VirtualDubMod 1.5.10.2 (build 2542/release)
Writing library : VirtualDubMod build 2542/release
Video
ID : 0
Format : MPEG-4 Visual
Format profile : Advanced Simple@L5
Format settings : BVOP2 / Custom Matrix
Format settings, BVOP : 2
Format settings, QPel : No
Format settings, GMC : No warppoints
Format settings, Matrix : Custom
Codec ID : XVID
Codec ID/Hint : XviD
Duration : 1 h 3 min
Bit rate : 1 522 kb/s
Width : 640 pixels
Height : 480 pixels
Display aspect ratio : 4:3
Frame rate : 25.000 FPS
Color space : YUV
Chroma subsampling : 4:2:0
Bit depth : 8 bits
Scan type : Progressive
Compression mode : Lossy
Bits/(Pixel*Frame) : 0.198
Stream size : 690 MiB (93%)
Writing library : XviD 67
Audio
ID : 1
Format : AC-3
Format/Info : Audio Coding 3
Format settings, Endianness : Big
Codec ID : 2000
Duration : 1 h 3 min
Bit rate mode : Constant
Bit rate : 112 kb/s
Channel(s) : 1 channel
Channel positions : Front: C
Sampling rate : 48.0 kHz
Frame rate : 31.250 FPS (1536 SPF)
Bit depth : 16 bits
Compression mode : Lossy
Stream size : 50.8 MiB (7%)
Alignment : Split accross interleaves
Interleave, duration : 40 ms (1.00 video frame)
Interleave, preload duration : 500 ms
Service kind : Complete Main

Скриншоты

[cybertorrent.net].t90.torrent 
Торрент: Зарегистрирован [ 2019-03-18 10:04 ] · A558DAD00393337C5E7F9C99FDF89D89DC3E9233

Скачать .torrent

Скачать

15 KB

Статус: проверено
Скачан: 0 раз
Размер: 745 MB
terms.php
Показать сообщения:    

Текущее время: 22-Ноя 08:00

Часовой пояс: UTC ± 0



Вы не можете начинать темы
Вы не можете отвечать на сообщения
Вы не можете редактировать свои сообщения
Вы не можете удалять свои сообщения
Вы не можете голосовать в опросах
Вы не можете прикреплять файлы к сообщениям
Вы можете скачивать файлы