Статистика раздачи
Размер:  1,86 GB   |    Зарегистрирован:  6 месяцев 26 дней   |    Скачан:  0 раз

Полного источника не было: Никогда

   
 

Гость ®

Пол:
Не указан

Бруклин 9-9 / Brooklyn Nine-Nine
Год выпуска: 2019
Страна: США
Жанр: комедия, криминал
Продолжительность: ~ 00:21:00
Перевод: Профессиональный (двухголосый закадровый)[Gears Media]
Режиссёр: Майкл МакДональд, Дин Холлэнд, Линда Мендоса
В ролях: Энди Сэмберг, Андре Брогер, Терри Крюс, Мелисса Фумеро, Джо Ло Труглио, Стефани Беатриз, Джейд Или, Фред Армисен, Дирк Блокер, Ричард Финкельштейн
Описание:
Рэй Хольт – капитан полиции, который крайне ответственно подходит к выполнению своих непосредственных обязанностей. Мало найдётся людей, также радеющих за общее дело. Он готов самоотверженно трудиться, чтобы на улицах его родного города под названием Бруклин было спокойно, и жители чувствовали себя в безопасности. Видя успехи столь ценного сотрудника, руководство однажды решает перевести его на новую должность. Он становится руководителем полицейского участка под номером 9-9. Это назначение становится причиной возникновения определенных сложностей. Для мужчины такая работа непривычна, ведь необходимо теперь координировать действия множества сотрудников.
Ссылка на предыдущие и альтернативные раздачи: http://cybertorrent.ru/forum/tracker.php?nm=Brooklyn+Nine-Nine
Сэмпл: http://multi-up.com/1221230
Качество: WEBRip
Формат: AVI
Видео: XviD, 720x400 at 23.976 fps, ~1500 kbps avg
Аудио1: Russian, MP3, 48 kHz, 2 ch, 128 kbps
Аудио2: English, MP3, 48 kHz, 2 ch, 128 kbps
Субтитры: нет
Реклама: аудио (два раза, в начале и конце, по 12 сек.)

MediaInfo

Format : AVI
Format/Info : Audio Video Interleave
File size : 273 MiB
Duration : 21 min 30 s
Overall bit rate : 1 773 kb/s
Writing application : Lavf58.20.100
Video
ID : 0
Format : MPEG-4 Visual
Format profile : Advanced Simple@L5
Format settings : BVOP1
Format settings, BVOP : 1
Format settings, QPel : No
Format settings, GMC : No warppoints
Format settings, Matrix : Default (H.263)
Codec ID : XVID
Codec ID/Hint : XviD
Duration : 21 min 30 s
Bit rate : 1 497 kb/s
Width : 720 pixels
Height : 400 pixels
Display aspect ratio : 16:9
Frame rate : 23.976 (24000/1001) FPS
Color space : YUV
Chroma subsampling : 4:2:0
Bit depth : 8 bits
Scan type : Progressive
Compression mode : Lossy
Bits/(Pixel*Frame) : 0.217
Stream size : 230 MiB (84%)
Writing library : XviD 67
Audio #1
ID : 1
Format : MPEG Audio
Format version : Version 1
Format profile : Layer 3
Format settings : Joint stereo
Codec ID : 55
Codec ID/Hint : MP3
Duration : 21 min 30 s
Bit rate mode : Constant
Bit rate : 128 kb/s
Channel(s) : 2 channels
Sampling rate : 48.0 kHz
Compression mode : Lossy
Stream size : 19.7 MiB (7%)
Alignment : Aligned on interleaves
Interleave, duration : 24 ms (0.58 video frame)
Title : Gears Media
Writing library : LAME3.100
Audio #2
ID : 2
Format : MPEG Audio
Format version : Version 1
Format profile : Layer 3
Format settings : Joint stereo
Codec ID : 55
Codec ID/Hint : MP3
Duration : 21 min 30 s
Bit rate mode : Constant
Bit rate : 128 kb/s
Channel(s) : 2 channels
Sampling rate : 48.0 kHz
Compression mode : Lossy
Stream size : 19.7 MiB (7%)
Alignment : Aligned on interleaves
Interleave, duration : 24 ms (0.58 video frame)

Скриншоты

Внимание! Раздача ведётся путём добавления новых серий

Внимание! Раздача ведётся путём добавления новых серий; при каждом добавлении создаётся новый торрент. Чтобы начать докачку новой серии, пользователям необходимо сделать следующее:
(1) остановить скачивание,
(2) удалить старый торрент у себя из клиента (старые серии удалять не надо),
(3) скачать новый торрент и запустить его у себя в клиенте вместо старого, при этом указать клиенту путь в старую папку куда и должно происходить скачивание новых серий.
Ваш клиент при этом должен произвести хеширование (проверку) старой папки (если не производит сам - помогите ему сделать это), и будет докачивать только те серии которых у вас ещё нет. Старые серии при этом не удаляются, а продолжают раздаваться!
Eсли вы уже удалили старые серии, то предотвратить повторную закачку старых серий можно, отжав галочку в соответствующих местах при запуске нового торрента. По возможности, желательно не удалять старые серии как можно дольше чтобы релизёр не столько продолжал раздавать старые серии, а смог сконцентрироваться на новых.
[cybertorrent.net].t886.torrent 
Торрент: Зарегистрирован [ 2019-03-19 15:46 ] · 83798C7646A08110D6ED36F8517514E92C7DE1F0

Скачать .torrent

Скачать

20 KB

Статус: проверено
Скачан: 0 раз
Размер: 1,86 GB
terms.php
Показать сообщения:    

Текущее время: 15-Окт 06:51

Часовой пояс: UTC ± 0



Вы не можете начинать темы
Вы не можете отвечать на сообщения
Вы не можете редактировать свои сообщения
Вы не можете удалять свои сообщения
Вы не можете голосовать в опросах
Вы не можете прикреплять файлы к сообщениям
Вы можете скачивать файлы