Статистика раздачи
Размер:  6,62 GB   |    Зарегистрирован:  6 месяцев 26 дней   |    Скачан:  0 раз

Полного источника не было: Никогда

   
 

Гость ®

Пол:
Не указан

Перерождение | The Passage- Год выпуска: 2019
Страна: США
Жанр: ужасы, фэнтези, боевик, драма, приключения
Продолжительность: ~ 00:44:00
Перевод: Любительский (многоголосый закадровый) TVShows--Режиссёр: Джейсон Энслер, Эллисон Лидди
В ролях: Марк-Пол Госселаар, Саня Сидни, Джейми МакШейн, Кэролайн Чикези, Эммануэль Шрики, Брианна Хоуи, Генри Йен Кьюсик, Винсент Пьяцца, Брианна Браун и др.-Описание: В Южной Америке несколько человек, больных раком, становятся жертвами нападения летучих мышей. Внезапно обнаруживается, что укус этих существ исцеляет людей от смертельного недуга. Правительство начинает соответствующие эксперименты и в конечном итоге оказывается нос к носу с огромной толпой практически не убиваемых вампиров, обладающих способностью к телепатии, которые начинают распространяться среди населения и увеличивать собственную популяцию.--
Качество: WEBRip
Формат: AVI
Видео: XVID, 720x400, 23.976 fps, ~2000 kbps avg, ~0.29 bit/pixel
Аудио Rus: AC3, 48.0 KHz, 6 channels, 384 kbps
Субтитры: нет
Реклама отсутствует
Все раздачи сериала

MediaInfo

General
Complete name : G:\Перерождение (Сезон 1) TVShows\The.Passage.S01E01.WEBRip.RGzsRutracker.Celta88.avi
Format : AVI
Format/Info : Audio Video Interleave
File size : 757 MiB
Duration : 44 min 11 s
Overall bit rate : 2 393 kb/s
Writing application : VirtualDubMod 1.5.10.3 | www.virtualdub-fr.org || (build 2550/release)
Writing library : VirtualDubMod build 2550/release
Video
ID : 0
Format : MPEG-4 Visual
Format profile : Advanced Simple@L5
Format settings, BVOP : 1
Format settings, QPel : No
Format settings, GMC : No warppoints
Format settings, Matrix : Custom
Codec ID : XVID
Codec ID/Hint : XviD
Duration : 44 min 11 s
Bit rate : 2 000 kb/s
Width : 720 pixels
Height : 400 pixels
Display aspect ratio : 16:9
Frame rate : 23.976 (24000/1001) FPS
Color space : YUV
Chroma subsampling : 4:2:0
Bit depth : 8 bits
Scan type : Progressive
Compression mode : Lossy
Bits/(Pixel*Frame) : 0.290
Stream size : 632 MiB (84%)
Writing library : XviD 73
Audio
ID : 1
Format : AC-3
Format/Info : Audio Coding 3
Mode extension : CM (complete main)
Format settings, Endianness : Big
Codec ID : 2000
Duration : 44 min 11 s
Bit rate mode : Constant
Bit rate : 384 kb/s
Channel(s) : 6 channels
Channel positions : Front: L C R, Side: L R, LFE
Sampling rate : 48.0 kHz
Frame rate : 31.250 FPS (1536 spf)
Bit depth : 16 bits
Compression mode : Lossy
Stream size : 121 MiB (16%)
Alignment : Split accross interleaves
Interleave, duration : 42 ms (1.00 video frame)
Interleave, preload duratio : 500 ms

Скриншоты

Внимание! Раздача ведётся путём добавления новых серий!

Внимание! Раздача ведётся путём добавления новых серий; при каждом добавлении создаётся новый торрент.
Чтобы начать докачку новой серии, пользователям необходимо сделать следующее:
1. Остановить скачивание.
2. Удалить старый торрент у себя из клиента (старые серии удалять не надо).
3. Скачать новый торрент и запустить его у себя в клиенте вместо старого, при этом указать клиенту путь в старую папку куда и должно происходить скачивание новых серий.
Ваш клиент при этом должен произвести хеширование (проверку) старой папки (если не производит сам - помогите ему сделать это), и будет докачивать только те серии которых у вас ещё нет. Старые серии при этом не удаляются, а продолжают раздаваться!
Eсли вы уже удалили старые серии, то предотвратить повторную закачку старых серий можно, отжав галочку в соответствующих местах при запуске нового торрента.
[cybertorrent.net].t885.torrent 
Торрент: Зарегистрирован [ 2019-03-19 15:46 ] · 7C02D091E2E69C37D3830BE74D04EC8D2808E737

Скачать .torrent

Скачать

34 KB

Статус: проверено
Скачан: 0 раз
Размер: 6,62 GB
terms.php
Показать сообщения:    

Текущее время: 15-Окт 07:03

Часовой пояс: UTC ± 0



Вы не можете начинать темы
Вы не можете отвечать на сообщения
Вы не можете редактировать свои сообщения
Вы не можете удалять свои сообщения
Вы не можете голосовать в опросах
Вы не можете прикреплять файлы к сообщениям
Вы можете скачивать файлы