Статистика раздачи
Размер:  1,77 GB   |    Зарегистрирован:  7 месяцев 26 дней   |    Скачан:  0 раз

Полного источника не было: Никогда

 
     
 
 

Гость ®

Пол:
Не указан

Сенсация- Год выпуска: 1993
Страна: Россия
Жанр: детский, семейный
Продолжительность: 01:25:25-Режиссер: Борис Горлов
В ролях: Алексей Петренко, Том Бел, Татьяна Панкова, Миша Капралов, Саша Стовбур, Аня Федосеева, Маша Антипова, Артем Хабутдинов, Антон Хропов, Сергей Хропов, Алеша Михайлов, Саша Михайлов, Роман Никитин, Алексей Никитин, Слава Хребтов, Н.Андрейчук, Юрий Башков, В.Васильев, Галина Гудова, Андрей Краско, Евгений Меркурьев, С.Пряженков, В.Русскин, О.Строумит, К.Хасанов, Т.Чудина, С.Янчин-Описание: Не первый год охраняет природу и животных лесник Юрий Савушкин. Но в его привычный, размеренный быт врываются "искатели" зоологических редкостей (дети-юннаты, ученый из Америки, академик-зоолог), потому что в Угрюмовском заповеднике, оказывается, проживает животное Глазюка...-Релиз: | Семпл: http://sendfile.su/1366352-Качество: DVB
Формат: TS
Видео: 720x576 (4:3), 25.000 fps, AVC, ~2623 Kbps, 0.253 bits/pixel
Аудио: Russian, 48.0 KHz, MPEG-1 Audio layer 2, 2 ch, 192 Kbps

MediaInfo

General
ID : 1 (0x1)
Complete name : Сенсация (Борис Горлов) 1993 Детский мир.ts
Format : MPEG-TS
File size : 1.77 GiB
Duration : 1 h 25 min
Overall bit rate mode : Variable
Overall bit rate : 2 963 kb/s
Maximum Overall bit rate : 35.5 Mb/s
Video
ID : 4113 (0x1011)
Menu ID : 1 (0x1)
Format : AVC
Format/Info : Advanced Video Codec
Format profile : High@L3
Format settings : CABAC / 4 Ref Frames
Format settings, CABAC : Yes
Format settings, RefFrames : 4 frames
Format settings, GOP : M=4, N=28
Codec ID : 27
Duration : 1 h 25 min
Bit rate : 2 623 kb/s
Width : 720 pixels
Height : 576 pixels
Display aspect ratio : 4:3
Frame rate : 25.000 FPS
Standard : Component
Color space : YUV
Chroma subsampling : 4:2:0
Bit depth : 8 bits
Scan type : Interlaced
Scan type, store method : Separated fields
Scan order : Top Field First
Bits/(Pixel*Frame) : 0.253
Stream size : 1.57 GiB (89%)
Color range : Limited
Color primaries : BT.601 PAL
Transfer characteristics : BT.470 System B, BT.470 System G
Matrix coefficients : BT.470 System B, BT.470 System G
Audio
ID : 4352 (0x1100)
Menu ID : 1 (0x1)
Format : MPEG Audio
Format version : Version 1
Format profile : Layer 2
Codec ID : 4
Duration : 1 h 25 min
Bit rate mode : Constant
Bit rate : 192 kb/s
Channel(s) : 2 channels
Sampling rate : 48.0 kHz
Compression mode : Lossy
Stream size : 117 MiB (6%)
Language : Russian
[cybertorrent.net].t88.torrent 
Торрент: Зарегистрирован [ 2019-03-18 10:04 ] · 65CA2FC45746A8082A7CB841669E5ED0367E92BD

Скачать .torrent

Скачать

18 KB

Статус: проверено
Скачан: 0 раз
Размер: 1,77 GB
terms.php
Показать сообщения:    

Текущее время: 14-Ноя 06:44

Часовой пояс: UTC ± 0



Вы не можете начинать темы
Вы не можете отвечать на сообщения
Вы не можете редактировать свои сообщения
Вы не можете удалять свои сообщения
Вы не можете голосовать в опросах
Вы не можете прикреплять файлы к сообщениям
Вы можете скачивать файлы