Статистика раздачи
Размер:  1,46 GB   |    Зарегистрирован:  8 месяцев 3 дня   |    Скачан:  0 раз

Полного источника не было: Никогда

 
     
 
 

Гость ®

Пол:
Не указан

Скольжение- Год выхода: 2013
Выпущено: Россия / Blackbriar production
Жанр: триллер, криминал
Продолжительность: 01:45:02-Режиссёр:
Антон Розенберг-В ролях:
Владислав Абашин, Алексей Игнатов, Михаил Солодко, Владимир Лукьянчиков, Наталья Швец, Ольга Смирнова, Александр Борисов, Николай Козак, Мария Слидовкер, Алексей Шкатов-Описание:
Главный герой с необычным именем-прозвищем Пепл — оперативный сотрудник, однако и он, и вся группа, к которой он принадлежит, типичные, погрязшие в криминальной деятельности, «оборотни в погонах». В отлаженной преступной схеме этой сработавшейся команды начинают возникать сбои, и становится очевидным, что в их рядах есть осведомитель. Обозначенная сюжетная канва не является единственным содержанием фильма — в оболочке криминальной драмы авторы рассказывают глубокую человеческую историю главного героя. Одновременно с описанными событиями он попадает в ситуацию, поставившую его на край реальной гибели, и это впервые заставляет Пепла начать осмысление собственной жизни и того, чем он занимается. Его рефлексия осложняется запутанными, эмоционально тяжелыми отношениями с женой. В результате он больше не может быть прежним, команда чувствует это, и подозрения падают именно на Пепла. Коллеги решают, что он и есть информатор ФСБ. Бывшие соратники превращаются во врагов, слаженный механизм группы работает теперь против Пепла. Он становится объектом безжалостного преследования. Ситуация раскручивается с неконтролируемой скоростью, она необратимо приобретает все более жесткую форму и безысходный характер. Скольжение Пепла становится все быстрее, теперь на кону уже гораздо большее, чем собственная жизнь, и ему придется решать, что для него действительно важно и за что стоит бороться до самого конца.-Релиз групп | | КиноПоиск | Сэмпл |-Качество: DVDRip [DVD9 R5]
Формат: AVI
Видео: 704x304 (2.32:1), 25 fps, XviD build 67 ~1527 kbps avg, 0.28 bit/pixel
Аудио: 48 kHz, AC3 Dolby Digital, 3/2 (L,C,R,l,r) + LFE ch, ~448.00 kbps avg-

Скриншоты

-

MediaInfo

Код:Полное имя : G:\Skolzhenie_2015_DVDRip_by_Dalemake.avi
Формат : AVI
Формат/Информация : Audio Video Interleave
Размер файла : 1,46 Гбайт
Продолжительность : 1 ч. 45 м.
Общий поток : 1985 Кбит/сек
Программа кодирования : VirtualDubMod 1.5.10.3 | www.virtualdub-fr.org || (build 2550/release)
Библиотека кодирования : VirtualDubMod build 2550/release
Видео
Идентификатор : 0
Формат : MPEG-4 Visual
Профиль формата : Advanced Simple@L5
Параметр BVOP формата : 1
Параметр QPel формата : Нет
Параметр GMC формата : Без точки перехода
Параметр матрицы формата : Выборочная
Идентификатор кодека : XVID
Идентификатор кодека/Подсказка : XviD
Продолжительность : 1 ч. 45 м.
Битрейт : 1528 Кбит/сек
Ширина : 704 пикселя
Высота : 304 пикселя
Соотношение сторон : 2,35:1
Частота кадров : 25,000 кадров/сек
Цветовое пространство : YUV
Субдискретизация насыщенности : 4:2:0
Битовая глубина : 8 бит
Тип развёртки : Прогрессивная
Метод сжатия : С потерями
Бит/(Пиксели*Кадры) : 0.286
Размер потока : 1,12 Гбайт (77%)
Библиотека кодирования : XviD 67
Аудио
Идентификатор : 1
Формат : AC-3
Формат/Информация : Audio Coding 3
Расширение режима : CM (complete main)
Параметр Endianness формата : Big
Идентификатор кодека : 2000
Продолжительность : 1 ч. 45 м.
Вид битрейта : Постоянный
Битрейт : 448 Кбит/сек
Каналы : 6 каналов
Расположение каналов : Front: L C R, Side: L R, LFE
Частота : 48,0 КГц
Метод сжатия : С потерями
Размер потока : 337 Мбайт (23%)
Выравнивание : Разделение по промежуткам
Продолжительность промежутка : 40 мс. (1,00 видеокадр)
Время предзагрузки промежутка : 500 мс.
-
[cybertorrent.net].t81.torrent 
Торрент: Зарегистрирован [ 2019-03-18 10:04 ] · C72E6446B1D8C7BB009A6CE01376022B16212395

Скачать .torrent

Скачать

15 KB

Статус: проверено
Скачан: 0 раз
Размер: 1,46 GB
terms.php
Показать сообщения:    

Текущее время: 22-Ноя 00:14

Часовой пояс: UTC ± 0



Вы не можете начинать темы
Вы не можете отвечать на сообщения
Вы не можете редактировать свои сообщения
Вы не можете удалять свои сообщения
Вы не можете голосовать в опросах
Вы не можете прикреплять файлы к сообщениям
Вы можете скачивать файлы