Статистика раздачи
Размер:  1 GB   |    Зарегистрирован:  10 дней   |    Скачан:  0 раз

Полного источника не было: Никогда

   
 

Floyd ®

Пол:
Мужской
Стаж:
6 месяцев 21 день
Сообщений:
1081

Мать Валентины / Valentina's Mother / Ima shel Valentina
Страна: Израиль
Жанр: драма
Год выпуска: 2008
Продолжительность: 01:14:11
Перевод: Субтитры
Субтитры: русские
Оригинальная аудиодорожка: иврит
Режиссер: Арик Любецки / Arik Lubetzki, Матти Харари / Matti Harari,
В ролях: Этель Ковенская, Сильвия Дрори
Описание: Паула, пожилая женщина пережившая Холокост, отказывается от любых попыток ее сына нанять для нее постоянную сиделку. Но когда священник знакомит Паулу с Валентиной, молодой полячкой ищущей работу в Израиле, Паула тут же соглашается нанять ее. Несмотря на явность того, что Валентина не так невинна, как она утверждает, у Паулы развивается эмоциональная зависимость к ней, в первую очередь потому, что она подругой детства Паулы. В скором времени границы прошлого и настоящего смешиваются в голове Паулы...
Качество видео: SATRip
Формат видео: AVI
Видео: Xvid 704x400 25fps 1798kbps
Аудио: MP3 48000Hz stereo 128kbps
Формат субтитров: hardsub (неотключаемые)

MediaInfo

General
Complete name : C:\Downloads\Мать Валентины.avi
Format : AVI
Format/Info : Audio Video Interleave
File size : 1.00 GiB
Duration : 1h 14mn
Overall bit rate : 1 936 Kbps
Writing library : VirtualDub-MPEG2 build 24600/release
Video
ID : 0
Format : MPEG-4 Visual
Format profile : Simple@L5
Format settings, BVOP : No
Format settings, QPel : No
Format settings, GMC : No warppoints
Format settings, Matrix : Default (H.263)
Codec ID : XVID
Codec ID/Hint : XviD
Duration : 1h 14mn
Bit rate : 1 798 Kbps
Width : 704 pixels
Height : 400 pixels
Display aspect ratio : 16:9
Frame rate : 25.000 fps
Color space : YUV
Chroma subsampling : 4:2:0
Bit depth : 8 bits
Scan type : Progressive
Compression mode : Lossy
Bits/(Pixel*Frame) : 0.255
Stream size : 954 MiB (93%)
Writing library : XviD 67
Audio
ID : 1
Format : MPEG Audio
Format version : Version 1
Format profile : Layer 3
Mode : Joint stereo
Mode extension : MS Stereo
Codec ID : 55
Codec ID/Hint : MP3
Duration : 1h 14mn
Bit rate mode : Constant
Bit rate : 128 Kbps
Channel(s) : 2 channels
Sampling rate : 48.0 KHz
Compression mode : Lossy
Stream size : 67.9 MiB (7%)
Alignment : Split accross interleaves
Interleave, duration : 40 ms (1.00 video frame)
Interleave, preload duration : 500 ms

Скриншоты






[cybertorrent.net].t7733.torrent 
Торрент: Зарегистрирован [ 2019-10-08 17:04 ] · F27BB7B32711E0D9E94D4B0CDBF91C6D22126737

Скачать .torrent

Скачать

10 KB

Статус: проверено
Скачан: 0 раз
Размер: 1 GB
terms.php
Профиль ЛС
Показать сообщения:    

Текущее время: 19-Окт 04:33

Часовой пояс: UTC ± 0



Вы не можете начинать темы
Вы не можете отвечать на сообщения
Вы не можете редактировать свои сообщения
Вы не можете удалять свои сообщения
Вы не можете голосовать в опросах
Вы не можете прикреплять файлы к сообщениям
Вы можете скачивать файлы