Статистика раздачи
Размер:  1,46 GB   |    Зарегистрирован:  10 дней   |    Скачан:  0 раз

Полного источника не было: Никогда

   
 

Floyd ®

Пол:
Мужской
Стаж:
6 месяцев 21 день
Сообщений:
1081

Ода к радости / Ode to Joy
Страна: США
Жанр: комедия
Год выпуска: 2019
Продолжительность: 01:37:32-Перевод: Профессиональный (многоголосый закадровый) | iTunes
Субтитры: русские (forced)
Оригинальная аудиодорожка: нет-Режиссер:
Джейсон Уайнер / Jason Winer-В ролях: Морена Баккарин, Мелисса Рауш, Мартин Фриман, Джейк Лэси, Шеннон Мари Вудворд, Джейн Куртин, Джеки Сейден, Адам Шапиро, Эллис Рубин, Эд Хербстман-Описание: Рухнуть в обморок на свадьбе друзей — только бедолага Чарли способен на такое: любые сильные (и особенно положительные!) переживания моментально отправляют его в забытье. Разве это жизнь — в постоянной заботе о том, чтобы «не почувствовать лишнего»? Совсем трудно становится, когда Чарли знакомится с красавицей Франческой, абсолютной девушкой своей мечты. Трудно осуществить мечту, если любовь и радость — то, что тебе запрещено по медицинским показаниям…
Качество видео: WEB-DLRip
Формат видео: AVI
Видео: 704x288 (2.44:1), 23.976 fps, XviD build 73 ~1740 kbps avg, 0.36 bit/pixel
Аудио: 48 kHz, AC3 Dolby Digital, 3/2 (L,C,R,l,r) + LFE ch, ~384 kbps-[box]Сэмпл[/box]-

MediaInfo

Код:Формат : AVI
Формат/Информация : Audio Video Interleave
Размер файла : 1,46 Гбайт
Продолжительность : 1 ч. 37 м.
Общий поток : 2134 Кбит/сек
Название фильма : Ода к радости_2019_WEB-DLRip
Программа кодирования : VirtualDubMod 1.5.10.3 | www.virtualdub-fr.org || (build 2550/release)
Авторское право : порошков
Видео
Идентификатор : 0
Формат : MPEG-4 Visual
Профиль формата : Advanced Simple@L5
Настройки формата : BVOP1 / Custom Matrix
Параметр BVOP формата : 1
Параметр QPel формата : Нет
Параметр GMC формата : Без точки перехода
Параметр матрицы формата : Выборочная
Идентификатор кодека : XVID
Идентификатор кодека/Подсказка : XviD
Продолжительность : 1 ч. 37 м.
Битрейт : 1741 Кбит/сек
Ширина : 704 пикселя
Высота : 288 пикселей
Соотношение сторон : 2,40:1
Частота кадров : 23,976 (24000/1001) кадра/сек
Цветовое пространство : YUV
Субдискретизация насыщенности : 4:2:0
Битовая глубина : 8 бит
Тип развёртки : Прогрессивная
Метод сжатия : С потерями
Бит/(Пиксели*Кадры) : 0.358
Размер потока : 1,19 Гбайт (82%)
Библиотека кодирования : XviD 73
Аудио
Идентификатор : 1
Формат : AC-3
Формат/Информация : Audio Coding 3
Коммерческое название : Dolby Digital
Идентификатор кодека : 2000
Продолжительность : 1 ч. 37 м.
Вид битрейта : Постоянный
Битрейт : 384 Кбит/сек
Каналы : 6 каналов
ChannelLayout : L R C LFE Ls Rs
Частота : 48,0 КГц
Частота кадров : 31,250 кадров/сек (1536 SPF)
Метод сжатия : С потерями
Размер потока : 268 Мбайт (18%)
Выравнивание : Разделение по промежуткам
Продолжительность промежутка : 42 мс. (1,00 видеокадр)
Время предзагрузки промежутка : 500 мс.
ServiceKind/String : Complete Main

Скриншоты


[cybertorrent.net].t7714.torrent 
Торрент: Зарегистрирован [ 2019-10-08 16:31 ] · 77D61F32CC96C6BE6108F3E423967F67892F194C

Скачать .torrent

Скачать

15 KB

Статус: проверено
Скачан: 0 раз
Размер: 1,46 GB
terms.php
Профиль ЛС
Показать сообщения:    

Текущее время: 19-Окт 04:29

Часовой пояс: UTC ± 0



Вы не можете начинать темы
Вы не можете отвечать на сообщения
Вы не можете редактировать свои сообщения
Вы не можете удалять свои сообщения
Вы не можете голосовать в опросах
Вы не можете прикреплять файлы к сообщениям
Вы можете скачивать файлы