Статистика раздачи
Размер:  1,6 GB   |    Зарегистрирован:  12 дней   |    Скачан:  0 раз

Полного источника не было: Никогда

   
 

Floyd ®

Пол:
Мужской
Стаж:
6 месяцев 21 день
Сообщений:
1081

Гамбургский синдром / Гамбургская болезнь / Die Hamburger Krankheit / The Hamburg Syndrome
Страна: Германия
Жанр: фантастика, постапокалипсис, катастрофа
Год выпуска: 1979
Продолжительность: 01:49:07
Перевод: Одноголосый закадровый - zames
Субтитры: русские, английские SDH
Оригинальная аудиодорожка: немецкий
Режиссер: Петер Фляйшманн / Peter Fleischmann
В ролях: Фернандо Аррабаль, Carline Seiser, Тило Прюкнер, Ульрих Вильдгрубер, Райнер Ланганс, Леопольд Хайнищ, Роми Хааг, Эвелин Кюннеке, Питер вон Зан, Розель Зех
Описание: Сначала в Гамбурге, а потом и во всей Германии распространяется таинственная эпидемия. Люди просто внезапно умирают.Один из ученых-медиков, несогласный с официальной трактовкой заболевания, стремится с группой единомышленников вырваться из карантинной зоны.

Формат видео: AVI
Видео: 704x416 (1.69:1), 25 fps, XviD build 73 ~1706 kbps avg, 0.23 bit/pixel
Аудио: 48 kHz, AC3 Dolby Digital, 2/0 (L,R) ch, ~192 kbps - одноголосый
Аудио: 48 kHz, AC3 Dolby Digital, 2/0 (L,R) ch, ~192 kbps - оригинал
Формат субтитров: softsub (SRT)

MediaInfo

Общее
Полное имя : H:\The.Hamburg.Syndrome.1979.dvdrip_[1.46]_[teko]\The.Hamburg.Syndrome.1979.dvdrip_[1.46].avi
Формат : AVI
Формат/Информация : Audio Video Interleave
Размер файла : 1,45 Гбайт
Продолжительность : 1 ч. 49 м.
Общий поток : 1908 Кбит/сек
Программа кодирования : VirtualDubMod 1.5.10.3 | www.virtualdub-fr.org || (build 2550/release)
Библиотека кодирования : VirtualDubMod build 2550/release
Видео
Идентификатор : 0
Формат : MPEG-4 Visual
Профиль формата : Advanced Simple@L5
Параметр BVOP формата : 2
Параметр QPel формата : Нет
Параметр GMC формата : Без точки перехода
Параметр матрицы формата : Выборочная
Идентификатор кодека : XVID
Идентификатор кодека/Подсказка : XviD
Продолжительность : 1 ч. 49 м.
Битрейт : 1706 Кбит/сек
Ширина : 704 пикселя
Высота : 416 пикселей
Соотношение сторон : 1,692
Частота кадров : 25,000 кадров/сек
Цветовое пространство : YUV
Субдискретизация насыщенности : 4:2:0
Битовая глубина : 8 бит
Тип развёртки : Прогрессивная
Метод сжатия : С потерями
Бит/(Пиксели*Кадры) : 0.233
Размер потока : 1,30 Гбайт (89%)
Библиотека кодирования : XviD 73
Аудио
Идентификатор : 1
Формат : AC-3
Формат/Информация : Audio Coding 3
Расширение режима : CM (complete main)
Параметр Endianness формата : Big
Идентификатор кодека : 2000
Продолжительность : 1 ч. 49 м.
Вид битрейта : Постоянный
Битрейт : 192 Кбит/сек
Каналы : 2 канала
Расположение каналов : Front: L R
Частота : 48,0 КГц
Битовая глубина : 16 бит
Метод сжатия : С потерями
Размер потока : 150 Мбайт (10%)
Выравнивание : Разделение по промежуткам
Продолжительность промежутка : 40 мс. (1,00 видеокадр)
Время предзагрузки промежутка : 500 мс.
[cybertorrent.net].t7675.torrent 
Торрент: Зарегистрирован [ 2019-10-06 19:14 ] · 103A4C72C38E9436AF6AC3F05C0587098F62C18F

Скачать .torrent

Скачать

17 KB

Статус: проверено
Скачан: 0 раз
Размер: 1,6 GB
terms.php
Профиль ЛС
Показать сообщения:    

Текущее время: 19-Окт 04:45

Часовой пояс: UTC ± 0



Вы не можете начинать темы
Вы не можете отвечать на сообщения
Вы не можете редактировать свои сообщения
Вы не можете удалять свои сообщения
Вы не можете голосовать в опросах
Вы не можете прикреплять файлы к сообщениям
Вы можете скачивать файлы