Статистика раздачи
Размер:  1,44 GB   |    Зарегистрирован:  2 месяца 8 дней   |    Скачан:  0 раз

Полного источника не было: Никогда

 
     
 
 

Floyd ®

Пол:
Мужской
Стаж:
8 месяцев 15 дней
Сообщений:
1547

Культпоход в театр- Жанр: комедия
Год выпуска: 1982
Продолжительность: 01:27:28-Режиссёр: Валерий Рубинчик-В ролях: Юрий Ступаков, Евгений Стеблов, Валентина Талызина, Валентина Шендрикова, Марина Шиманская, Валентин Печников, Игорь Класс, Анатолий Рудаков, Антонина Бендова, Виктор Ильичёв, Мария Барабанова, Нинель Жуковская, Людмила Мелешко, Владимир Сичкарь, Александр Беспалый, Анжела Кораблёва, Георгий Тейх
Описание: Действие фильма происходит в живописном селе, удаленном от городской суеты. Ансамбль деревенских музыкантов воюет с областными "культурными" бюрократами. Любовь и ненависть, искренность и хитрость соседствуют в этой забавной истории.
Качество видео: HDTVRip-AVC
Формат видео: MKV
Видео: x264 (High@L4.1); 1152x496, Display aspect ratio 2.323:1, 25.000 fps, 2161 Kbps
Аудио: AC-3; 16 bits 48 Khz; 2.0ch 192 Kbps; CBR
george$t писал(а):
Благодарю Bartimeyse за любезно предоставленные записи.

MediaInfo

x264 log

avs [info]: 1152x496p 1:1 @ 25/1 fps (cfr)
avs [info]: color matrix: bt709
x264 [info]: using SAR=1/1
x264 [info]: using cpu capabilities: MMX2 SSE2Fast SSSE3 SSE4.2
x264 [info]: profile High, level 4.1, 4:2:0, 8-bit
x264 [info]: frame I:659 Avg QP:15.61 size: 49597
x264 [info]: frame P:28677 Avg QP:17.38 size: 23585
x264 [info]: frame B:101872 Avg QP:20.14 size: 6958
x264 [info]: consecutive B-frames: 1.1% 1.6% 8.0% 28.9% 20.9% 33.3% 4.9% 0.9% 0.3% 0.1%
x264 [info]: mb I I16..4: 3.4% 82.8% 13.8%
x264 [info]: mb P I16..4: 1.4% 17.2% 1.8% P16..4: 32.8% 35.7% 9.5% 0.7% 0.0% skip: 0.8%
x264 [info]: mb B I16..4: 0.2% 1.5% 0.2% B16..8: 32.8% 20.4% 3.1% direct: 8.2% skip:33.7% L0:41.0% L1:45.1% BI:13.9%
x264 [info]: 8x8 transform intra:82.9% inter:60.9%
x264 [info]: coded y,uvDC,uvAC intra: 78.1% 76.9% 46.1% inter: 23.1% 26.2% 8.3%
x264 [info]: i16 v,h,dc,p: 20% 16% 8% 55%
x264 [info]: i8 v,h,dc,ddl,ddr,vr,hd,vl,hu: 14% 9% 11% 8% 10% 12% 11% 12% 14%
x264 [info]: i4 v,h,dc,ddl,ddr,vr,hd,vl,hu: 17% 13% 9% 7% 12% 12% 11% 9% 11%
x264 [info]: i8c dc,h,v,p: 39% 28% 21% 12%
x264 [info]: Weighted P-Frames: Y:7.1% UV:2.8%
x264 [info]: ref P L0: 42.6% 8.4% 15.9% 6.0% 5.5% 4.0% 3.9% 2.2% 2.3% 1.9% 2.0% 1.7% 1.8% 1.7% 0.1% 0.0%
x264 [info]: ref B L0: 85.0% 7.1% 2.4% 1.2% 0.9% 0.8% 0.6% 0.4% 0.4% 0.4% 0.3% 0.3% 0.2%
x264 [info]: ref B L1: 97.3% 2.7%
x264 [info]: kb/s:2161.29
-General
Unique ID : 177958691352887110791412955756501868497 (0x85E198E5A430597DA46A85110BFB1FD1)
Complete name : Культпоход в театр.1982.mkv
Format : Matroska
Format version : Version 2
File size : 1.44 GiB
Duration : 1 h 27 min
Overall bit rate : 2 355 kb/s
Encoded date : UTC 2019-09-26 20:04:03
Writing application : mkvmerge v7.8.0 ('River Man') 32bit built on Mar 27 2015 16:18:02
Writing library : libebml v1.3.1 + libmatroska v1.4.2
Video
ID : 1
Format : AVC
Format/Info : Advanced Video Codec
Format profile : High@L4.1
Format settings : CABAC / 14 Ref Frames
Format settings, CABAC : Yes
Format settings, ReFrames : 14 frames
Codec ID : V_MPEG4/ISO/AVC
Duration : 1 h 27 min
Bit rate : 2 116 kb/s
Width : 1 152 pixels
Height : 496 pixels
Display aspect ratio : 2.35:1
Frame rate mode : Constant
Frame rate : 25.000 FPS
Color space : YUV
Chroma subsampling : 4:2:0
Bit depth : 8 bits
Scan type : Progressive
Bits/(Pixel*Frame) : 0.148
Stream size : 1.29 GiB (90%)
Title : Культпоход в театр.1982
Writing library : x264 core 157 r2867+103 0d6443f t_mod_Custom_2 [8-bit@all X86]
Encoding settings : cabac=1 / ref=14 / deblock=1:-2:-2 / analyse=0x3:0x133 / me=umh / subme=11 / psy=1 / fade_compensate=0.00 / psy_rd=1.02:0.05 / mixed_ref=1 / me_range=32 / chroma_me=1 / trellis=2 / 8x8dct=1 / cqm=0 / deadzone=21,11 / fast_pskip=0 / chroma_qp_offset=-3 / threads=12 / lookahead_threads=2 / sliced_threads=0 / nr=0 / decimate=0 / interlaced=0 / bluray_compat=0 / constrained_intra=0 / fgo=0 / bframes=9 / b_pyramid=2 / b_adapt=2 / b_bias=0 / direct=1 / weightb=1 / open_gop=0 / weightp=2 / keyint=250 / keyint_min=25 / scenecut=40 / intra_refresh=0 / rc_lookahead=60 / rc=crf / mbtree=0 / crf=17.8500 / qcomp=0.60 / qpmin=0:0:0 / qpmax=69:69:69 / qpstep=4 / vbv_maxrate=62500 / vbv_bufsize=78125 / crf_max=0.0 / nal_hrd=none / filler=0 / ip_ratio=1.40 / pb_ratio=1.30 / aq=3:0.60 / aq-sensitivity=10.00 / aq-factor=1.00:1.00:1.00 / aq2=0 / aq3=0
Language : Russian
Default : Yes
Forced : No
Color range : Limited
Color primaries : BT.709
Transfer characteristics : BT.709
Matrix coefficients : BT.709
Audio
ID : 2
Format : AC-3
Format/Info : Audio Coding 3
Codec ID : A_AC3
Duration : 1 h 27 min
Bit rate mode : Constant
Bit rate : 192 kb/s
Channel(s) : 2 channels
Channel positions : Front: L R
Sampling rate : 48.0 kHz
Frame rate : 31.250 FPS (1536 SPF)
Bit depth : 16 bits
Compression mode : Lossy
Stream size : 120 MiB (8%)
Title : AC-3; 16 bits 48 Khz; 2.0ch 192 Kbps; CBR
Language : Russian
Service kind : Complete Main
Default : Yes
Forced : No

Скриншоты

[cybertorrent.net].t7413.torrent 
Торрент: Зарегистрирован [ 2019-10-04 18:22 ] · 1C6675E981D25F0AFBB2761086AC53F4717143BB

Скачать .torrent

Скачать

15 KB

Статус: проверено
Скачан: 0 раз
Размер: 1,44 GB
terms.php
Профиль [ЛС]
Показать сообщения:    

Текущее время: 12-Дек 20:14

Часовой пояс: UTC ± 0



Вы не можете начинать темы
Вы не можете отвечать на сообщения
Вы не можете редактировать свои сообщения
Вы не можете удалять свои сообщения
Вы не можете голосовать в опросах
Вы не можете прикреплять файлы к сообщениям
Вы можете скачивать файлы