Статистика раздачи
Размер:  1,27 GB   |    Зарегистрирован:  2 месяца 8 дней   |    Скачан:  0 раз

Полного источника не было: Никогда

 
     
 
 

Floyd ®

Пол:
Мужской
Стаж:
8 месяцев 15 дней
Сообщений:
1547

Яд скорпиона
Жанр: комедия, эротика
Год выпуска: 1991
Продолжительность: 01:22:25
Режиссёр: Владимир Панжев, Олег Бараев
В ролях: Елена Масуренкова, Николай Ковбас, Сергей Данилевич, П. Ролан, Василий Стоноженко, И. Толстых, Александр Числов, Оксана Фомичёва, Паша Лычникофф, Ф. Демье
Описание: Журналистка Анна дежурит на телефоне «Службы доверия». Случайно узнав о секте самоубийц, девушка присоединяется к ним... В фильме «Яд скорпиона» создатели использовали самую простодушную придумку. Сон — чем не мотивировка для любой, самой фантастической экзотики! А если не в меру насмотришься видео, то и в самом деле — такое может присниться! Героиня картины заснула у телевизора под перепалку Мюллера и Штирлица. Не может быть, чтоб тут не пряталась улыбка создателей. Мы, помнящие премьеру «Семнадцати мгновений», забывали всё на свете и жили в ожидании "новых мгновений". А новое поколение зевает в самых драматических узлах наших святынь и тянется душой в вертеп разврата, где перед запланированной кончиной молодые люди и девушки — в последний раз! — предаются "радостям жизни"...
Качество видео: VHSRip
Формат видео: AVI
Видео: Xvid 576x432 25fps 2008kbps
Аудио: Dolby AC3 48000Hz stereo 192kbps

MediaInfo

General
Complete name : C:\Users\morozoff\Desktop\Яд скорпиона.avi
Format : AVI
Format/Info : Audio Video Interleave
File size : 1.27 GiB
Duration : 1 h 22 min
Overall bit rate : 2 210 kb/s
Writing application : VirtualDubMod 1.5.10.3 | www.virtualdub-fr.org || (build 2550/release)
Writing library : VirtualDubMod build 2550/release
Video
ID : 0
Format : MPEG-4 Visual
Format profile : Advanced Simple@L5
Format settings : BVOP1
Format settings, BVOP : 1
Format settings, QPel : No
Format settings, GMC : No warppoints
Format settings, Matrix : Default (MPEG)
Codec ID : XVID
Codec ID/Hint : XviD
Duration : 1 h 22 min
Bit rate : 2 009 kb/s
Width : 576 pixels
Height : 432 pixels
Display aspect ratio : 4:3
Frame rate : 25.000 FPS
Color space : YUV
Chroma subsampling : 4:2:0
Bit depth : 8 bits
Scan type : Progressive
Compression mode : Lossy
Bits/(Pixel*Frame) : 0.323
Stream size : 1.16 GiB (91%)
Writing library : XviD 1.2.1 (UTC 2008-12-04)
Audio
ID : 1
Format : AC-3
Format/Info : Audio Coding 3
Commercial name : Dolby Digital
Codec ID : 2000
Duration : 1 h 22 min
Bit rate mode : Constant
Bit rate : 192 kb/s
Channel(s) : 2 channels
Channel layout : L R
Sampling rate : 48.0 kHz
Frame rate : 31.250 FPS (1536 SPF)
Bit depth : 16 bits
Compression mode : Lossy
Stream size : 113 MiB (9%)
Alignment : Split across interleaves
Interleave, duration : 40 ms (1.00 video frame)
Interleave, preload duration : 500 ms
Service kind : Complete Main

Скриншоты

[cybertorrent.net].t7412.torrent 
Торрент: Зарегистрирован [ 2019-10-04 18:20 ] · FBC936993CF9CBD9C36C091C0AF2D663C3DA8DE1

Скачать .torrent

Скачать

13 KB

Статус: проверено
Скачан: 0 раз
Размер: 1,27 GB
terms.php
Профиль [ЛС]
Показать сообщения:    

Текущее время: 12-Дек 20:13

Часовой пояс: UTC ± 0



Вы не можете начинать темы
Вы не можете отвечать на сообщения
Вы не можете редактировать свои сообщения
Вы не можете удалять свои сообщения
Вы не можете голосовать в опросах
Вы не можете прикреплять файлы к сообщениям
Вы можете скачивать файлы