Статистика раздачи
Размер:  5,71 GB   |    Зарегистрирован:  8 месяцев 2 дня   |    Скачан:  0 раз
Сидов:  10  [  0 KB/s  ]   Личеров:  8  [  0 KB/s  ]  
 
     
 
 

Гость ®

Пол:
Не указан

Сумеречные охотники / Shadowhunters- Год выпуска: 2018
Страна: США
Жанр: Фэнтези, боевик, драма
Продолжительность: 00:43:38-Перевод: Профессиональный (многоголосый закадровый) - NewStudio-Режиссёр: Майрзи Алмас, Тауния Маккирнан, Энди Волк, Оз Скотт-В ролях: Кэтрин МакНамара, Доминик Шервуд, Альберто Розенде, Алан Ван Спрэнг, Джон Кор, Кейтлин Вонг, Мими Кузык-Описание: Невзрачная и ничем не примечательная девушка Клэри Фрэй в свой 18-й день рождения узнает, что она является наследницей древнего семейства Сумеречных Охотников — таинственного клана полулюдей-полуангелов, которые обороняют мир от демонических тварей. После похищения матери девушка вместе со своим другом Саймоном и сумеречным охотником Джейсом пытается ее спасти и… попадает в другую реальность.
Сэмпл: http://multi-up.com/1192704-Релиз от:
Перевод: Дарья Савельева-Качество: WEB-DLRip
Формат: AVI
Видео: 720x400 (16:9), 23.976 fps, XviD, 1355 Kbps
Аудио: MP3, 48 kHz, 2 ch, 128 kbps, CBR - Rus
Субтитры: Отсутствуют-Реклама: Присутствует звуковая (два раза в начале и конце по 10 сек.)-

MediaInfo

General
Complete name : Downloads\Shadowhunters.S03.NewStudio\Shadowhunters.S03E01.WEB-DLRip.NewStudio.avi
Format : AVI
Format/Info : Audio Video Interleave
File size : 466 MiB
Duration : 43mn 38s
Overall bit rate : 1 496 Kbps
Writing application : Lavf57.25.100
Video #0
ID : 0
Format : xvid
Codec ID : xvid
Duration : 43mn 38s
Bit rate : 1 355 Kbps
Width : 720 pixels
Height : 400 pixels
Display aspect ratio : 16:9
Frame rate : 23.976 fps
Bits/(Pixel*Frame) : 0.196
Stream size : 423 MiB (91%)
Audio #1
ID : 1
Format : MPEG Audio
Format version : Version 1
Format profile : Layer 3
Mode : Joint stereo
Mode extension : MS Stereo
Codec ID : 55
Codec ID/Hint : MP3
Duration : 43mn 38s
Bit rate mode : Constant
Bit rate : 128 Kbps
Channel(s) : 2 channels
Sampling rate : 48.0 KHz
Compression mode : Lossy
Stream size : 39.9 MiB (9%)
Alignment : Aligned on interleaves
Interleave, duration : 24 ms (0.58 video frame)
Interleave, preload duration : 24 ms
Writing library : LAME3.99.5

Скриншоты

Внимание! Раздача ведётся путём добавления новых серий:

(1) остановить скачивание,
(2) удалить старый торрент у себя из клиента (старые серии удалять не надо),
(3) скачать новый торрент и запустить его у себя в клиенте вместо старого, при этом указать клиенту путь в старую папку куда и должно происходить скачивание новых серий.
Ваш клиент при этом должен произвести хеширование (проверку) старой папки (если не производит сам - помогите ему сделать это), и будет докачивать только те серии которых у вас ещё нет. Старые серии при этом не удаляются, а продолжают раздаваться!
Eсли вы уже удалили старые серии, то предотвратить повторную закачку старых серий можно, отжав галочку в соответсвующих местах при запуске нового торрента. По возможности, желательно не удалять старые серии как можно дольше чтобы релизёр не столько продолжал раздавать старые серии, а смог сконцентрироваться на новых
.
Предыдущие и альтернативные раздачи
[cybertorrent.net].t725.torrent 
Торрент: Зарегистрирован [ 2019-03-19 15:46 ] · ACAC8CF4B39FBFE8075F3BC6F40F0B5B44FD98FC

Скачать .torrent

Скачать

16 KB

Статус: проверено
Скачан: 0 раз
Размер: 5,71 GB
terms.php
Показать сообщения:    

Текущее время: 22-Ноя 05:42

Часовой пояс: UTC ± 0



Вы не можете начинать темы
Вы не можете отвечать на сообщения
Вы не можете редактировать свои сообщения
Вы не можете удалять свои сообщения
Вы не можете голосовать в опросах
Вы не можете прикреплять файлы к сообщениям
Вы можете скачивать файлы