Статистика раздачи
Скачал: [ 2 ]
 
     
 
 

Peter ®

Пол:
Мужской
Стаж:
1 год 1 месяц
Сообщений:
234

-Анна / Anna-«Никогда не делай оружие мишенью»- -Страна: Франция, США
Жанр: боевик, триллер
Год выпуска: 2019
Продолжительность: 01:58:59-Перевод: Профессиональный (дублированный) iTunes
Субтитры: нет
Оригинальная аудиодорожка: нет-Режиссер: Люк Бессон / Luc Besson-В ролях: Саша Лусс, Хелен Миррен, Люк Эванс, Киллиан Мёрфи, Лера Абова, Александр Петров (II), Никита Павленко, Анна Криппа, Алексей Маслодудов, Эрик Годон, Иван Франек, Жан-Батист Пюэк, Хакан Кан, Элисон Вилер, Эндрю Ховард, Ян Оливер Шрёдер, Луиз Паркер, Лорен Ферраро, Мабу Куяте, Полин Хорау, Жан-Марк Монтальто-Описание: История Анны, чья несравненная красота скрывает поразительную мощь и смертоносный талант опаснейшего наемного убийцы в мире.- - -Качество видео: BDRip-AVC / Anna.2019.BDREMUX.1080p.seleZen
Формат видео: MKV-Видео: MPEG-4 AVC, 914x382 (2.40:1), 23.976 fps, ~1322 kbps avg, 0.158 bit/pixel
Аудио: 48 kHz, AC3 Dolby Digital, 3/2 (L,C,R,l,r) + LFE ch, ~384 kbps avg-

MediaInfo

Код:Complete name : D:\Раздача\Анна (2019) BDRip-AVC_ivanes.mkv
Format : Matroska
Format version : Version 2
File size : 1.45 GiB
Duration : 1 h 58 min
Overall bit rate : 1 741 kb/s
Movie name : Анна (2019) BDRip-AVC_ivanes
Encoded date : UTC 2019-09-20 12:13:18
Writing application : mkvmerge v4.4.0 ('Die Wiederkehr') сборка от Jan 3 2011 21:40:45
Writing library : libebml v1.0.0 + libmatroska v1.0.0
Cover : Yes
Attachments : cover.jpg
Video
ID : 1
Format : AVC
Format/Info : Advanced Video Codec
Format profile : High@L4.1
Format settings : CABAC / 14 Ref Frames
Format settings, CABAC : Yes
Format settings, Reference : 14 frames
Codec ID : V_MPEG4/ISO/AVC
Duration : 1 h 58 min
Bit rate : 1 322 kb/s
Width : 914 pixels
Height : 382 pixels
Display aspect ratio : 2.40:1
Frame rate mode : Constant
Frame rate : 23.976 (24000/1001) FPS
Color space : YUV
Chroma subsampling : 4:2:0
Bit depth : 8 bits
Scan type : Progressive
Bits/(Pixel*Frame) : 0.158
Stream size : 1.10 GiB (76%)
Title : Rip by ivanes
Writing library : x264 core 158 r2984+49 6932f4a t_mod_New [0-bit@all X86]
Encoding settings : cabac=1 / ref=14 / deblock=1:-2:-1 / analyse=0x3:0x113 / me=umh / subme=10 / psy=1 / fade_compensate=0.00 / psy_rd=1.00:0.00 / mixed_ref=1 / me_range=32 / chroma_me=1 / trellis=2 / 8x8dct=1 / cqm=0 / deadzone=21,11 / fast_pskip=0 / chroma_qp_offset=-2 / threads=12 / lookahead_threads=2 / sliced_threads=0 / nr=0 / decimate=1 / interlaced=0 / bluray_compat=0 / constrained_intra=0 / fgo=0 / bframes=14 / b_pyramid=2 / b_adapt=2 / b_bias=0 / direct=1 / weightb=1 / open_gop=0 / weightp=2 / keyint=240 / keyint_min=23 / scenecut=40 / intra_refresh=0 / rc_lookahead=60 / rc=crf / mbtree=0 / crf=17.4000 / qcomp=0.60 / qpmin=0:0:0 / qpmax=69:69:69 / qpstep=4 / vbv_maxrate=50000 / vbv_bufsize=62500 / crf_max=0.0 / nal_hrd=none / filler=0 / ip_ratio=1.40 / pb_ratio=1.30 / aq=1:1.00 / aq-sensitivity=10.00 / aq-factor=1.00:1.00:1.00 / aq2=0 / aq3=0
Default : Yes
Forced : No
Statistics Tags Issue : mkvmerge v29.0.0 ('Like It Or Not') 64-bit 2019-09-20 12:06:21 / mkvmerge v4.4.0 ('Die Wiederkehr') сборка от Jan 3 2011 21:40:45 2019-09-20 12:13:18
FromStats_BitRate : 1354753
FromStats_Duration : 01:58:59.174000000
FromStats_FrameCount : 171169
FromStats_StreamSize : 1208977205
Audio
ID : 2
Format : AC-3
Format/Info : Audio Coding 3
Commercial name : Dolby Digital
Codec ID : A_AC3
Duration : 1 h 58 min
Bit rate mode : Constant
Bit rate : 384 kb/s
Channel(s) : 6 channels
Channel layout : L R C LFE Ls Rs
Sampling rate : 48.0 kHz
Frame rate : 31.250 FPS (1536 SPF)
Bit depth : 16 bits
Compression mode : Lossy
Stream size : 327 MiB (22%)
Title : iTunes
Language : Russian
Service kind : Complete Main
Default : Yes
Forced : No

Скриншоты

Профиль [ЛС]
Показать сообщения:    

Текущее время: 20-Сен 05:09

Часовой пояс: UTC ± 0



Вы не можете начинать темы
Вы не можете отвечать на сообщения
Вы не можете редактировать свои сообщения
Вы не можете удалять свои сообщения
Вы не можете голосовать в опросах
Вы не можете прикреплять файлы к сообщениям
Вы не можете скачивать файлы