Статистика раздачи
Размер:  2,74 GB   |    Зарегистрирован:  8 месяцев 22 дня   |    Скачан:  0 раз

Полного источника не было: Никогда

 
     
 
 

Гость ®

Пол:
Не указан

Пока не выпал снег
25.01.2019 торрент обновлен, запись трансляции ТК "Ностальгия" заменена записью трансляции ТК "Культура". Преимущества на сравнениях
Жанр: драма, киноповесть
Год выпуска: 1984
Продолжительность: 01:16:32
Режиссёр: Игорь Апасян
В ролях: Наталья Сайко, Александр Пороховщиков, Елена Соловей, Максим Киселев (озвучание - Вячеслав Баранов), Евгения Добровольская, Ольга Машная, Сергей Быстрицкий, Борис Гусаков
Описание: Готовясь к встрече бывших одноклассников, героиня фильма вспоминает школьные годы, свою первую любовь.
Доп. информация: Запись потока *.ts со спутника Экспресс АМ7, 40° в.д., ремукс в *.mkv программой VideoReDo.
Качество видео: DVB
Формат видео: MPEG-PS
Видео: MPEG2 Video, 720(1024)x576 (16:9), 25,000 кадров/сек, 4772 Кбит/сек
Аудио: MPEG Audio, 48,0 КГц, 256 Кбит/сек, 2 канала

MediaInfo

Общее
Уникальный идентификатор : 298591332289557340096944091286250199962 (0xE0A2994AE5BCAC09B89AEA7A7F7C1B9A)
Полное имя : E:\Torrent\ПОКА НЕ ВЫПАЛ СНЕГ 16Х9 (Kultura 40).mkv
Формат : Matroska
Версия формата : Version 2
Размер файла : 2,74 Гбайт
Продолжительность : 1 ч. 16 м.
Режим общего битрейта : Переменный
Общий поток : 5130 Кбит/сек
Программа кодирования : Lavf52.64.2
Библиотека кодирования : Lavf52.64.2
Видео
Идентификатор : 1
Формат : MPEG Video
Версия формата : Version 2
Профиль формата : Main@Main
Параметр BVOP формата : Да
Параметр матрицы формата : Выборочная
Параметр GOP формата : M=3, N=15
Структура изображения : Frame
Идентификатор кодека : V_MPEG2
Идентификатор кодека/Информация : MPEG 1 or 2 Video
Продолжительность : 1 ч. 16 м.
Вид битрейта : Переменный
Битрейт : 4772 Кбит/сек
Максимальный битрейт : 15,0 Мбит/сек
Ширина : 720 пикселей
Высота : 576 пикселей
Соотношение сторон : 16:9
Соотношение сторон в оригинале : 16:9
Режим частоты кадров : Постоянный
Частота кадров : 25,000 кадров/сек
Стандарт вещания : PAL
Цветовое пространство : YUV
Субдискретизация насыщенности : 4:2:0
Битовая глубина : 8 бит
Тип развёртки : Чересстрочная
Порядок развёртки : Верхнее поле первое
Метод сжатия : С потерями
Бит/(Пиксели*Кадры) : 0.460
Размер потока : 2,55 Гбайт (93%)
Default : Да
Forced : Нет
Аудио
Идентификатор : 2
Формат : MPEG Audio
Версия формата : Version 1
Профиль формата : Layer 2
Идентификатор кодека : A_MPEG/L2
Идентификатор кодека/Подсказка : MP2
Продолжительность : 1 ч. 16 м.
Вид битрейта : Постоянный
Битрейт : 256 Кбит/сек
Каналы : 2 канала
Частота : 48,0 КГц
Метод сжатия : С потерями
Задержка видео : 2 мс.
Размер потока : 140 Мбайт (5%)
Язык : English
Default : Да
Forced : Нет
[cybertorrent.net].t60.torrent 
Торрент: Зарегистрирован [ 2019-03-18 10:04 ] · 15587D6DADC2E9EB71E43194D0BDD0375229AA7B

Скачать .torrent

Скачать

14 KB

Статус: проверено
Скачан: 0 раз
Размер: 2,74 GB
terms.php
Показать сообщения:    

Текущее время: 10-Дек 09:14

Часовой пояс: UTC ± 0



Вы не можете начинать темы
Вы не можете отвечать на сообщения
Вы не можете редактировать свои сообщения
Вы не можете удалять свои сообщения
Вы не можете голосовать в опросах
Вы не можете прикреплять файлы к сообщениям
Вы можете скачивать файлы