Статистика раздачи
Размер:  1,47 GB   |    Зарегистрирован:  7 месяцев 3 дня   |    Скачан:  0 раз

Полного источника не было: Никогда

   
 

cooman ®

Пол:
Не указан
Стаж:
7 месяцев 3 дня
Сообщений:
5

Полярный / Polar- Год выхода: 2019
Страна: США
Производство: Constantin Film, Dark Horse Entertainment
Жанр: боевик, криминал
Продолжительность: 01:58:53
Перевод: Профессиональный (многоголосый закадровый) IdeaFilm - Ненормативная лексика
Субтитры: нет-Режиссер:
Йонас Окерлунд / Jonas Åkerlund-В ролях:
Мадс Миккельсен, Кэтрин Уинник, Джонни Ноксвилл, Ричард Дрейфусс, Ванесса Энн Хадженс, Руби О. Фи, Мэтт Лукас, Сима Фишер, Роберт Мэйллет, Фэй Рен, Инга Кадранел-О фильме:
Дункан Визла — один из самых опасных киллеров в мире, известный под прозвищем Черный Кайзер. Когда-то он убивал людей по всему свету, но теперь наслаждается мирным существованием и давно уже не брал в руки оружие.
Только вот бывший клиент, с которым у Дункана произошел небольшой конфликт, не собирается забывать старые обиды. В скором времени мирной жизни бывшего киллера придет конец, когда за Дунканом начнет охоту армия из молодых и беспощадных убийц. Для спасения жизни ему предстоит использовать все полученные за долгие годы заказных убийств навыки и знания.-Качество: WEB-DLRip [Polar.2019.1080p.NF.WEB-DL.DDP5.1.x264-NTG]
Формат: AVI
Видео: 704x352 (2.00:1), 23.976 fps, XviD build 67 ~1374 kbps avg, 0.23 bit/pixel
Аудио: 48 kHz, AC3 Dolby Digital, 3/2 (L,C,R,l,r) + LFE ch, ~384 kbps avg
-

Скриншоты

-

MediaInfo

Общее
Полное имя                               : D:\Polar_2019_WEB-DLRip_IdeaFilm_by_Dalemake.avi
Формат                                   : AVI
Формат/Информация                        : Audio Video Interleave
Размер файла                             : 1,47 Гбайт
Продолжительность                        : 1 ч. 58 м.
Общий поток                              : 1768 Кбит/сек
Программа кодирования                    : VirtualDubMod 1.5.10.3 | www.virtualdub-fr.org || (build 2550/release)
Библиотека кодирования                   : VirtualDubMod build 2550/release
Видео
Идентификатор                            : 0
Формат                                   : MPEG-4 Visual
Профиль формата                          : Advanced Simple@L5
Параметр BVOP формата                    : 1
Параметр QPel формата                    : Нет
Параметр GMC формата                     : Без точки перехода
Параметр матрицы формата                 : Выборочная
Идентификатор кодека                     : XVID
Идентификатор кодека/Подсказка           : XviD
Продолжительность                        : 1 ч. 58 м.
Битрейт                                  : 1374 Кбит/сек
Ширина                                   : 704 пикселя
Высота                                   : 352 пикселя
Соотношение сторон                       : 2,000
Частота кадров                           : 23,976 кадра/сек
Цветовое пространство                    : YUV
Субдискретизация насыщенности            : 4:2:0
Битовая глубина                          : 8 бит
Тип развёртки                            : Прогрессивная
Метод сжатия                             : С потерями
Бит/(Пиксели*Кадры)                      : 0.231
Размер потока                            : 1,14 Гбайт (78%)
Библиотека кодирования                   : XviD 67
Аудио
Идентификатор                            : 1
Формат                                   : AC-3
Формат/Информация                        : Audio Coding 3
Расширение режима                        : CM (complete main)
Параметр Endianness формата              : Big
Идентификатор кодека                     : 2000
Продолжительность                        : 1 ч. 58 м.
Вид битрейта                             : Постоянный
Битрейт                                  : 384 Кбит/сек
Каналы                                   : 6 каналов
Расположение каналов                     : Front: L C R, Side: L R, LFE
Частота                                  : 48,0 КГц
Битовая глубина                          : 16 бит
Метод сжатия                             : С потерями
Размер потока                            : 327 Мбайт (22%)
Выравнивание                             : Разделение по промежуткам
Продолжительность промежутка             : 42  мс. (1,00 видеокадр)
Время предзагрузки промежутка            : 500  мс.
-
[cybertorrent.net].t6.torrent 
Торрент: Зарегистрирован [ 2019-03-12 14:00 ] · 8F26C049FA4579F93FE204AF820AD0646685CFF1

Скачать .torrent

Скачать

15 KB

Статус: проверено
Скачан: 0 раз
Размер: 1,47 GB
terms.php
Профиль ЛС
Показать сообщения:    

Текущее время: 16-Окт 00:27

Часовой пояс: UTC ± 0



Вы не можете начинать темы
Вы не можете отвечать на сообщения
Вы не можете редактировать свои сообщения
Вы не можете удалять свои сообщения
Вы не можете голосовать в опросах
Вы не можете прикреплять файлы к сообщениям
Вы можете скачивать файлы