Статистика раздачи
Размер:  1,46 GB   |    Зарегистрирован:  7 месяцев 28 дней   |    Скачан:  0 раз

Полного источника не было: Никогда

 
     
 
 

солнышко ®

Пол:
Не указан
Стаж:
8 месяцев 3 дня
Сообщений:
565

Слепец / Blind
Страна: Франция, США
Жанр: драма, мелодрама
Год выпуска: 2017
Продолжительность: 01:45:32
Перевод: Любительский (многоголосый закадровый) Синема УС
Субтитры: нет
Оригинальная аудиодорожка: английский
Режиссер: Майкл Мэйлер / Michael Mailer
В ролях: Алек Болдуин, Деми Мур, Дилан МакДермотт, Иден Эпштейн, Джеймс МакКэффри, Вива Бьянка, Дрю Морлейн, Джон Баффало Мэйлер, Жерардо Родригез-Описание: Сюзанн Дачман – жена всесильного олигарха, арестованного за незаконные финансовые операции, проходившие через семейный банковский счет, была признана судом косвенно причастной к инкриминируемой мужу афере. В качестве наказания ей было назначено 100 часов общественных работ в центре для слепых. В её обязанности входила начитка студенческих работ ослепшему в результате автомобильной катастрофы Биллу Окленду, в прошлом известному писателю, а ныне преподавателю колледжа.-Качество видео: HDRip
Формат видео: AVI
Видео: XviD, 720x304 (2,36:1), 23,976 fps, 1582 kbps
Аудио 1: AC3 Dolby Digital, 48 kHz, 2 ch, 192 kbps (Rus)
Аудио 2: AC3 Dolby Digital, 48 kHz, 2 ch, 192 kbps (Eng)
За работу с аудиодорожкой большое спасибо Нордер

MediaInfo

Общее
Полное имя : Blind 2017.avi
Формат : AVI
Формат/Информация : Audio Video Interleave
Размер файла : 1,46 Гбайт
Продолжительность : 1 ч. 45 м.
Общий поток : 1980 Кбит/сек
Программа кодирования : VirtualDubMod 1.5.10.2 (build 2542/release)
Библиотека кодирования : VirtualDubMod build 2542/release
Видео
Идентификатор : 0
Формат : MPEG-4 Visual
Профиль формата : Advanced Simple@L5
Настройки формата : BVOP2 / Custom Matrix
Параметр BVOP формата : 2
Параметр QPel формата : Нет
Параметр GMC формата : Без точки перехода
Параметр матрицы формата : Выборочная
Идентификатор кодека : XVID
Идентификатор кодека/Подсказка : XviD
Продолжительность : 1 ч. 45 м.
Битрейт : 1582 Кбит/сек
Ширина : 720 пикселей
Высота : 304 пикселя
Соотношение сторон : 2,35:1
Частота кадров : 23,976 (24000/1001) кадра/сек
Цветовое пространство : YUV
Субдискретизация насыщенности : 4:2:0
Битовая глубина : 8 бит
Тип развёртки : Прогрессивная
Метод сжатия : С потерями
Бит/(Пиксели*Кадры) : 0.301
Размер потока : 1,17 Гбайт (80%)
Библиотека кодирования : XviD 65
Аудио #1
Идентификатор : 1
Формат : AC-3
Формат/Информация : Audio Coding 3
Идентификатор кодека : 2000
Продолжительность : 1 ч. 45 м.
Вид битрейта : Постоянный
Битрейт : 192 Кбит/сек
Каналы : 2 канала
Расположение каналов : Front: L R
Частота : 48,0 КГц
Частота кадров : 31,250 кадров/сек (1536 SPF)
Битовая глубина : 16 бит
Метод сжатия : С потерями
Размер потока : 145 Мбайт (10%)
Выравнивание : Разделение по промежуткам
Продолжительность промежутка : 42 мс. (1,00 видеокадр)
Время предзагрузки промежутка : 500 мс.
ServiceKind/String : Complete Main
Аудио #2
Идентификатор : 2
Формат : AC-3
Формат/Информация : Audio Coding 3
Идентификатор кодека : 2000
Продолжительность : 1 ч. 45 м.
Вид битрейта : Постоянный
Битрейт : 192 Кбит/сек
Каналы : 2 канала
Расположение каналов : Front: L R
Частота : 48,0 КГц
Частота кадров : 31,250 кадров/сек (1536 SPF)
Битовая глубина : 16 бит
Метод сжатия : С потерями
Размер потока : 145 Мбайт (10%)
Выравнивание : Разделение по промежуткам
Продолжительность промежутка : 42 мс. (1,00 видеокадр)
Время предзагрузки промежутка : 500 мс.
ServiceKind/String : Complete Main

Скриншоты


[cybertorrent.net].t560.torrent 
Торрент: Зарегистрирован [ 2019-03-18 13:08 ] · 3513B14793B96B2F37816459B9CF1EE1D9B2EE31

Скачать .torrent

Скачать

15 KB

Статус: проверено
Скачан: 0 раз
Размер: 1,46 GB
terms.php
Профиль ЛС
Показать сообщения:    

Текущее время: 15-Ноя 20:50

Часовой пояс: UTC ± 0



Вы не можете начинать темы
Вы не можете отвечать на сообщения
Вы не можете редактировать свои сообщения
Вы не можете удалять свои сообщения
Вы не можете голосовать в опросах
Вы не можете прикреплять файлы к сообщениям
Вы можете скачивать файлы