Статистика раздачи
Размер:  321 MB   |    Зарегистрирован:  8 месяцев 22 дня   |    Скачан:  0 раз

Полного источника не было: Никогда

 
     
 
 

Гость ®

Пол:
Не указан

Дрянь / Fleabag
Год выпуска: 2019
Страна: Великобритания
Жанр: драма
Продолжительность: ~ 00:25:00
Перевод: Профессиональный (двухголосый закадровый)[Gears Media]
Режиссёр: Гарри Брэдбир, Тим Киркби
В ролях: Фиби Уоллер-Бридж, Бен Элдридж, Сиан Клиффорд, Джэми Деметриу, Билл Патерсон, Дженни Рейнсфорд, Хью Скиннер, Оливия Колман, Сара Дэйкин, Хью Дэннис
Описание:
В основу сериала лёг одноименный моно-спектакль Фиби Уоллер Бридж 2013 года, получивший самые положительные отзывы критиков. Сюжет комедии заверчен вокруг молодой, упрямой и стабильно попадающей в неприятности феминистки Фиби, которая изо всех сил стремится изменить что-то в этом мире, но категорически неспособна принимать помощь и советы окружающих.
Ссылка на предыдущие и альтернативные раздачи: http://cybertorrent.ru/forum/tracker.php?nm=Fleabag
Сэмпл: http://multi-up.com/1226682
Качество: WEBRip
Формат: AVI
Видео: XviD, 720x400 at 50.000 fps, ~1500 kbps avg
Аудио1: Russian, MP3, 48 kHz, 2 ch, 128 kbps
Аудио2: English, MP3, 48 kHz, 2 ch, 128 kbps
Субтитры: нет
Реклама: аудио (два раза, в начале и конце, по 12 сек.)

MediaInfo

Format : AVI
Format/Info : Audio Video Interleave
File size : 321 MiB
Duration : 25 min 31 s
Overall bit rate : 1 757 kb/s
Writing application : Lavf58.20.100
Video
ID : 0
Format : MPEG-4 Visual
Format profile : Advanced Simple@L5
Format settings : BVOP1
Format settings, BVOP : 1
Format settings, QPel : No
Format settings, GMC : No warppoints
Format settings, Matrix : Default (H.263)
Codec ID : XVID
Codec ID/Hint : XviD
Duration : 25 min 31 s
Bit rate : 1 475 kb/s
Width : 720 pixels
Height : 400 pixels
Display aspect ratio : 16:9
Frame rate : 50.000 FPS
Color space : YUV
Chroma subsampling : 4:2:0
Bit depth : 8 bits
Scan type : Progressive
Compression mode : Lossy
Bits/(Pixel*Frame) : 0.102
Stream size : 269 MiB (84%)
Writing library : XviD 67
Audio #1
ID : 1
Format : MPEG Audio
Format version : Version 1
Format profile : Layer 3
Format settings : Joint stereo / MS Stereo
Codec ID : 55
Codec ID/Hint : MP3
Duration : 25 min 31 s
Bit rate mode : Constant
Bit rate : 128 kb/s
Channel(s) : 2 channels
Sampling rate : 48.0 kHz
Compression mode : Lossy
Stream size : 23.4 MiB (7%)
Alignment : Aligned on interleaves
Interleave, duration : 24 ms (1.20 video frame)
Title : Gears Media
Writing library : LAME3.10
Audio #2
ID : 2
Format : MPEG Audio
Format version : Version 1
Format profile : Layer 3
Format settings : Joint stereo / MS Stereo
Codec ID : 55
Codec ID/Hint : MP3
Duration : 25 min 31 s
Bit rate mode : Constant
Bit rate : 128 kb/s
Channel(s) : 2 channels
Sampling rate : 48.0 kHz
Compression mode : Lossy
Stream size : 23.4 MiB (7%)
Alignment : Aligned on interleaves
Interleave, duration : 24 ms (1.20 video frame)
Writing library : LAME3.100

Скриншоты

Внимание! Раздача ведётся путём добавления новых серий

Внимание! Раздача ведётся путём добавления новых серий; при каждом добавлении создаётся новый торрент. Чтобы начать докачку новой серии, пользователям необходимо сделать следующее:
(1) остановить скачивание,
(2) удалить старый торрент у себя из клиента (старые серии удалять не надо),
(3) скачать новый торрент и запустить его у себя в клиенте вместо старого, при этом указать клиенту путь в старую папку куда и должно происходить скачивание новых серий.
Ваш клиент при этом должен произвести хеширование (проверку) старой папки (если не производит сам - помогите ему сделать это), и будет докачивать только те серии которых у вас ещё нет. Старые серии при этом не удаляются, а продолжают раздаваться!
Eсли вы уже удалили старые серии, то предотвратить повторную закачку старых серий можно, отжав галочку в соответствующих местах при запуске нового торрента. По возможности, желательно не удалять старые серии как можно дольше чтобы релизёр не столько продолжал раздавать старые серии, а смог сконцентрироваться на новых.
[cybertorrent.net].t558.torrent 
Торрент: Зарегистрирован [ 2019-03-18 13:08 ] · 4969225A730664E8E2C2BF61AB859A2A612CB1B2

Скачать .torrent

Скачать

13 KB

Статус: проверено
Скачан: 0 раз
Размер: 321 MB
terms.php
Показать сообщения:    

Текущее время: 10-Дек 09:12

Часовой пояс: UTC ± 0



Вы не можете начинать темы
Вы не можете отвечать на сообщения
Вы не можете редактировать свои сообщения
Вы не можете удалять свои сообщения
Вы не можете голосовать в опросах
Вы не можете прикреплять файлы к сообщениям
Вы можете скачивать файлы