Статистика раздачи
Размер:  594 MB   |    Зарегистрирован:  8 месяцев 23 дня   |    Скачан:  0 раз

Полного источника не было: Никогда

 
     
 
 

Гость ®

Пол:
Не указан

-Невыразимое / Unspeakable-
Год выпуска: 2019
Страна: Канада
Жанр: драма, история
Продолжительность: ~ 44 мин.
Перевод:: Профессиональный (многоголосый закадровый) (NewStudio)-Режиссеры: Грегори Смит, Роберт С. Купер, Энди Микита
В ролях: Шон Дойл, Майкл Шэнкс, Камилль Салливан, Сара Уэйн Кэллис, Дэвид Льюис, Кэролайн КейвБрайан Маркинсон и др.-Описание: Сериал-хроника основанный на реальных событиях описанных журналистами и учеными о недостатке крови в банке крови в 1980-х годах в Канаде при зародившейся и разрастающейся эпидемии ВИЧ и Гепатита.-Информационные ссылки: IMDb || Кинопоиск--Качество: WEB-DLRip
Формат: AVI (Сэмпл)
Видео: 720x400 (16:9), 23.976 fps, XviD build 50 ~1498 kbps avg, 0.22 bit/pixel
Аудио #1: 48 kHz, MPEG Layer 3, 2 ch, ~192.00 kbps avg (Rus)
Аудио #2: 48 kHz, MPEG Layer 3, 2 ch, ~192.00 kbps avg (Eng)
Субтитры: нет
Реклама: Отсутствует-Ссылка на предыдущие и альтернативные раздачи--
MIОбщее
Полное имя : D:\Видео\Сериалы\400p\Unspeakable\Unspeakable.s01e01.avi
Формат : AVI
Формат/Информация : Audio Video Interleave
Размер файла : 594 Мбайт
Продолжительность : 43 м. 44 с.
Общий поток : 1898 Кбит/сек
Программа кодирования : VirtualDubMod 1.5.10.2 (build 2540/release)
Библиотека кодирования : VirtualDubMod build 2540/release
Видео
Идентификатор : 0
Формат : MPEG-4 Visual
Профиль формата : Advanced Simple@L5
Настройки формата : BVOP1
Параметр BVOP формата : 1
Параметр QPel формата : Нет
Параметр GMC формата : Без точки перехода
Параметр матрицы формата : Default (H.263)
Идентификатор кодека : XVID
Идентификатор кодека/Подсказка : XviD
Продолжительность : 43 м. 44 с.
Битрейт : 1500 Кбит/сек
Ширина : 720 пикселей
Высота : 400 пикселей
Соотношение сторон : 16:9
Частота кадров : 23,976 (24000/1001) кадра/сек
Цветовое пространство : YUV
Субдискретизация насыщенности : 4:2:0
Битовая глубина : 8 бит
Тип развёртки : Прогрессивная
Метод сжатия : С потерями
Бит/(Пиксели*Кадры) : 0.217
Размер потока : 469 Мбайт (79%)
Библиотека кодирования : XviD 1.2.1 (UTC 2008-12-04)
Аудио #1
Идентификатор : 1
Формат : MPEG Audio
Версия формата : Version 1
Профиль формата : Layer 3
Настройки формата : Joint stereo / MS Stereo
Идентификатор кодека : 55
Идентификатор кодека/Подсказка : MP3
Продолжительность : 43 м. 44 с.
Вид битрейта : Постоянный
Битрейт : 192 Кбит/сек
Каналы : 2 канала
Частота : 48,0 КГц
Метод сжатия : С потерями
Размер потока : 60,1 Мбайт (10%)
Выравнивание : Соединение по промежуткам
Продолжительность промежутка : 42 мс. (1,00 видеокадр)
Время предзагрузки промежутка : 504 мс.
Аудио #2
Идентификатор : 2
Формат : MPEG Audio
Версия формата : Version 1
Профиль формата : Layer 3
Настройки формата : Joint stereo / MS Stereo
Идентификатор кодека : 55
Идентификатор кодека/Подсказка : MP3
Продолжительность : 43 м. 44 с.
Вид битрейта : Постоянный
Битрейт : 192 Кбит/сек
Каналы : 2 канала
Частота : 48,0 КГц
Частота кадров : 41,667 кадра/сек (1152 SPF)
Метод сжатия : С потерями
Размер потока : 60,1 Мбайт (10%)
Выравнивание : Соединение по промежуткам
Продолжительность промежутка : 42 мс. (1,00 видеокадр)
Время предзагрузки промежутка : 504 мс.

Скриншоты

Внимание! Раздача ведётся путём добавления новых серий

При очередном добавлении новой серии, создаётся новый торрент. Для того, чтобы скачать новую серию сезона, Вам необходимо сделать следующее:
1. Удалить старый торрент (лишь торрент, серии удалять не нужно),
2. Скачать новый торрент-файл и запустить его. ОБЯЗАТЕЛЬНО при этом указать клиенту путь в старую папку, где уже находятся предыдущие серии.
3. Ваш клиент производит хеширование старой папки и будет докачивать только те серии и субтитры, которых у Вас ещё нет. Старые серии при этом не удаляются.
[cybertorrent.net].t557.torrent 
Торрент: Зарегистрирован [ 2019-03-18 13:08 ] · 28A33C11CF1E5F317BF4110E59398143532EF596

Скачать .torrent

Скачать

12 KB

Статус: проверено
Скачан: 0 раз
Размер: 594 MB
terms.php
Показать сообщения:    

Текущее время: 11-Дек 07:07

Часовой пояс: UTC ± 0



Вы не можете начинать темы
Вы не можете отвечать на сообщения
Вы не можете редактировать свои сообщения
Вы не можете удалять свои сообщения
Вы не можете голосовать в опросах
Вы не можете прикреплять файлы к сообщениям
Вы можете скачивать файлы