Статистика раздачи
Размер:  2,21 GB   |    Зарегистрирован:  7 месяцев 24 дня   |    Скачан:  0 раз

Полного источника не было: Никогда

 
     
 
 

солнышко ®

Пол:
Не указан
Стаж:
7 месяцев 30 дней
Сообщений:
565

Опасная игра Слоун / Мисс Слоун / Miss Sloane- Страна: Франция, США
Жанр: триллер, драма
Год выпуска: 2016
Продолжительность: 02:12:11
Перевод: Профессиональный (дублированный) iTunes
Субтитры: русские, английские
Оригинальная аудиодорожка: английский
Режиссер: Джон Мэдден / John Madden
В ролях: Джессика Честейн, Гугу Мбата-Роу, Марк Стронг, Джон Литгоу, Элисон Пилл, Майкл Стулбарг, Джейк Лэси, Сэм Уотерстон, Дуглас Смит, Дилан Бэйкер
Описание: Элизабет Слоун — самый востребованный и рисковый лоббист и самая сексуальная акула политического бизнеса США. Ловко ведя психологические игры и используя искусство манипуляции, она сражает оппонентов своей непредсказуемостью и никогда не проигрывает. Но когда она берется за самое сложное в своей карьере дело, она понимает, что цена победы может быть слишком высокой.
Сэмпл: http://sendfile.su/1482504

Качество видео: BDRip-AVC (Miss.Sloane.2016.Blu-Ray Remux.1080p)
Формат видео: MKV
Видео: x264, 1152x482 (2.40:1) 23.976 fps, ~1556 kbps, 0,117 bit/pixel
Аудио 1: 48 kHz, AC3 Dolby Digital, 3/2 (L,C,R,l,r) + LFE ch, ~384 kbps [русский, iTunes Russia]
Аудио 2: 48 kHz, AC3 Dolby Digital, 3/2 (L,C,R,l,r) + LFE ch, ~448 kbps [английский]
Формат субтитров: softsub (SRT)

MediaInfo

General
Unique ID : 222340671730238495906661713075048475996 (0xA745417918D6529A43191EB00AC6ED5C)
Format : Matroska
Format version : Version 4 / Version 2
File size : 2.21 GiB
Duration : 2h 12mn
Overall bit rate : 2 391 Kbps
Encoded date : UTC 2019-03-14 17:43:06
Writing application : mkvmerge v32.0.0 ('Astral Progressions') 64-bit
Writing library : libebml v1.3.7 + libmatroska v1.5.0
Video #1
ID : 1
Format : AVC
Format/Info : Advanced Video Codec
Format profile : High@L4.1
Format settings, CABAC : Yes
Format settings, ReFrames : 13 frames
Codec ID : V_MPEG4/ISO/AVC
Duration : 2h 12mn
Bit rate : 1 556 Kbps
Width : 1 152 pixels
Height : 482 pixels
Display aspect ratio : 2.40:1
Frame rate mode : Constant
Frame rate : 23.976 (24000/1001) fps
Color space : YUV
Chroma subsampling : 4:2:0
Bit depth : 8 bits
Scan type : Progressive
Bits/(Pixel*Frame) : 0.117
Stream size : 1.44 GiB (65%)
Writing library : x264 core 157 r2935 545de2f
Encoding settings : cabac=1 / ref=13 / deblock=1:-3:-2 / analyse=0x3:0x133 / me=umh / subme=10 / psy=1 / psy_rd=1.00:0.00 / mixed_ref=1 / me_range=32 / chroma_me=1 / trellis=2 / 8x8dct=1 / cqm=0 / deadzone=21,11 / fast_pskip=0 / chroma_qp_offset=-2 / threads=6 / lookahead_threads=1 / sliced_threads=0 / nr=0 / decimate=1 / interlaced=0 / bluray_compat=0 / constrained_intra=0 / bframes=11 / b_pyramid=2 / b_adapt=2 / b_bias=0 / direct=1 / weightb=1 / open_gop=0 / weightp=2 / keyint=250 / keyint_min=23 / scenecut=40 / intra_refresh=0 / rc=crf / mbtree=0 / crf=19.5 / qcomp=0.65 / qpmin=0 / qpmax=69 / qpstep=4 / ip_ratio=1.40 / pb_ratio=1.30 / aq=3:0.90
Language : English
Default : Yes
Forced : No
Audio #2
ID : 2
Format : AC-3
Format/Info : Audio Coding 3
Mode extension : CM (complete main)
Format settings, Endianness : Big
Codec ID : A_AC3
Duration : 2h 12mn
Bit rate mode : Constant
Bit rate : 384 Kbps
Channel(s) : 6 channels
Channel positions : Front: L C R, Side: L R, LFE
Sampling rate : 48.0 KHz
Frame rate : 31.250 fps (1536 spf)
Compression mode : Lossy
Stream size : 363 MiB (16%)
Language : Russian
Default : Yes
Forced : Yes
Audio #3
ID : 3
Format : AC-3
Format/Info : Audio Coding 3
Mode extension : CM (complete main)
Format settings, Endianness : Big
Codec ID : A_AC3
Duration : 2h 12mn
Bit rate mode : Constant
Bit rate : 448 Kbps
Channel(s) : 6 channels
Channel positions : Front: L C R, Side: L R, LFE
Sampling rate : 48.0 KHz
Frame rate : 31.250 fps (1536 spf)
Compression mode : Lossy
Stream size : 424 MiB (19%)
Language : English
Default : No
Forced : No
Text #4
ID : 4
Format : UTF-8
Codec ID : S_TEXT/UTF8
Codec ID/Info : UTF-8 Plain Text
Duration : 2h 6mn
Bit rate : 177 bps
Count of elements : 1667
Stream size : 164 KiB (0%)
Language : Russian
Default : No
Forced : No
Text #5
ID : 5
Format : UTF-8
Codec ID : S_TEXT/UTF8
Codec ID/Info : UTF-8 Plain Text
Duration : 2h 7mn
Bit rate : 93 bps
Count of elements : 2636
Stream size : 86.7 KiB (0%)
Language : English
Default : No
Forced : No

лог

raw [info]: 1152x482p 1:1 @ 24000/1001 fps (cfr)
x264 [info]: using SAR=1/1
x264 [info]: using cpu capabilities: MMX2 SSE2Fast SSSE3 SSE4.2 AVX XOP FMA3 BMI1
x264 [info]: profile High, level 4.1, 4:2:0, 8-bit
x264 [info]: frame I:1799 Avg QP:16.87 size: 55406
x264 [info]: frame P:34615 Avg QP:18.53 size: 19322
x264 [info]: frame B:153739 Avg QP:21.16 size: 5037
x264 [info]: consecutive B-frames: 1.4% 0.8% 3.3% 11.1% 16.8% 44.3% 10.1% 2.6% 2.9% 3.3% 1.9% 1.4%
x264 [info]: mb I I16..4: 5.8% 76.6% 17.6%
x264 [info]: mb P I16..4: 0.5% 5.4% 1.2% P16..4: 43.5% 25.8% 18.7% 0.4% 0.1% skip: 4.5%
x264 [info]: mb B I16..4: 0.0% 0.3% 0.1% B16..8: 43.4% 9.8% 2.0% direct: 2.3% skip:42.1% L0:46.4% L1:47.5% BI: 6.2%
x264 [info]: 8x8 transform intra:76.3% inter:67.2%
x264 [info]: coded y,uvDC,uvAC intra: 87.5% 85.6% 64.4% inter: 14.5% 11.3% 1.8%
x264 [info]: i16 v,h,dc,p: 33% 15% 8% 44%
x264 [info]: i8 v,h,dc,ddl,ddr,vr,hd,vl,hu: 20% 9% 5% 9% 12% 13% 11% 11% 11%
x264 [info]: i4 v,h,dc,ddl,ddr,vr,hd,vl,hu: 23% 8% 3% 9% 13% 13% 11% 10% 10%
x264 [info]: i8c dc,h,v,p: 34% 25% 26% 15%
x264 [info]: Weighted P-Frames: Y:5.8% UV:3.6%
x264 [info]: ref P L0: 43.2% 8.4% 17.9% 7.2% 6.0% 4.2% 3.8% 1.9% 1.9% 1.5% 1.4% 1.2% 1.2% 0.1% 0.0%
x264 [info]: ref B L0: 64.3% 13.4% 7.7% 3.9% 2.9% 2.4% 1.9% 1.1% 0.9% 0.8% 0.5% 0.2%
x264 [info]: ref B L1: 91.5% 8.5%
x264 [info]: kb/s:1556.25
x264 [total]: encoded 190153 frames, 6.33 fps, 1556.25 kb/s

Скриншоты


[cybertorrent.net].t550.torrent 
Торрент: Зарегистрирован [ 2019-03-18 13:08 ] · 1E0FD30DFCDB74C8DFFFB71EF95D7AF1B646F34C

Скачать .torrent

Скачать

12 KB

Статус: проверено
Скачан: 0 раз
Размер: 2,21 GB
terms.php
Профиль ЛС
Показать сообщения:    

Текущее время: 12-Ноя 06:23

Часовой пояс: UTC ± 0



Вы не можете начинать темы
Вы не можете отвечать на сообщения
Вы не можете редактировать свои сообщения
Вы не можете удалять свои сообщения
Вы не можете голосовать в опросах
Вы не можете прикреплять файлы к сообщениям
Вы можете скачивать файлы