Статистика раздачи
Размер:  743 MB   |    Зарегистрирован:  6 месяцев 26 дней   |    Скачан:  0 раз

Полного источника не было: Никогда

   
 

солнышко ®

Пол:
Не указан
Стаж:
7 месяцев 1 день
Сообщений:
565

Неправильное воспитание Кэмерон Пост / The Miseducation of Cameron Post
Страна: США
Жанр: драма, мелодрама
Год выпуска: 2018
Продолжительность: 01:31:37-Перевод: Любительский (многоголосый закадровый) | HDRezka Studio
Субтитры: нет
Оригинальная аудиодорожка: нет-Режиссер: Дезире Акхаван / Desiree Akhavan-В ролях: Хлоя Грейс Морец, Стивен Хаук, Куинн Шепард, Керри Батлер, Далтон Хэррод, МакКейб Слей, Дэйл Соулс, Саша Лэйн, Джон Галлахер мл., Эмили Скеггс-Описание: В 1993 году девушку по имени Кэмерон Пост обвиняют в сексуальной связи с королевой выпускного бала, после чего её консервативные дядя с тётей отправляют её на принудительное лечение в клинику по исправлению гомосексуалистов.- -Качество видео: BDRip | The.Miseducation.of.Cameron.Post.2018.BDREMUX
Формат видео: AVI
Видео: 704x384 (1.83:1), 23.976 fps, XviD build 73 ~996 kbps avg, 0.15 bit/pixel
Аудио: 48 kHz, MPEG Layer 3, 2 ch, ~128.00 kbps avg-[box]Сэмпл[/box]-

MediaInfo

Код:Формат : AVI
Формат/Информация : Audio Video Interleave
Размер файла : 743 Мбайт
Продолжительность : 1 ч. 31 м.
Общий поток : 1134 Кбит/сек
Программа кодирования : VirtualDubMod 1.5.10.3 | www.virtualdub-fr.org || (build 2550/release)
Библиотека кодирования : VirtualDubMod build 2550/release
Видео
Идентификатор : 0
Формат : MPEG-4 Visual
Профиль формата : Advanced Simple@L5
Настройки формата : BVOP1 / Custom Matrix
Параметр BVOP формата : 1
Параметр QPel формата : Нет
Параметр GMC формата : Без точки перехода
Параметр матрицы формата : Выборочная
Идентификатор кодека : XVID
Идентификатор кодека/Подсказка : XviD
Продолжительность : 1 ч. 31 м.
Битрейт : 997 Кбит/сек
Ширина : 704 пикселя
Высота : 384 пикселя
Соотношение сторон : 1,85:1
Частота кадров : 23,976 (24000/1001) кадра/сек
Цветовое пространство : YUV
Субдискретизация насыщенности : 4:2:0
Битовая глубина : 8 бит
Тип развёртки : Прогрессивная
Метод сжатия : С потерями
Бит/(Пиксели*Кадры) : 0.154
Размер потока : 653 Мбайт (88%)
Библиотека кодирования : XviD 73
Аудио
Идентификатор : 1
Формат : MPEG Audio
Версия формата : Version 1
Профиль формата : Layer 3
Идентификатор кодека : 55
Идентификатор кодека/Подсказка : MP3
Продолжительность : 1 ч. 31 м.
Вид битрейта : Постоянный
Битрейт : 128 Кбит/сек
Каналы : 2 канала
Частота : 48,0 КГц
Частота кадров : 41,667 кадра/сек (1152 SPF)
Метод сжатия : С потерями
Размер потока : 83,9 Мбайт (11%)
Выравнивание : Соединение по промежуткам
Продолжительность промежутка : 42 мс. (1,00 видеокадр)
Время предзагрузки промежутка : 504 мс.
Библиотека кодирования : LAME3.99r
Настройки программы : -m s -V 4 -q 2 -lowpass 17 -b 128

Скриншоты


[cybertorrent.net].t549.torrent 
Торрент: Зарегистрирован [ 2019-03-18 13:08 ] · 6D1DEF949A92D60A7938F793795CAD0639514682

Скачать .torrent

Скачать

15 KB

Статус: проверено
Скачан: 0 раз
Размер: 743 MB
terms.php
Профиль ЛС
Показать сообщения:    

Текущее время: 13-Окт 23:01

Часовой пояс: UTC ± 0



Вы не можете начинать темы
Вы не можете отвечать на сообщения
Вы не можете редактировать свои сообщения
Вы не можете удалять свои сообщения
Вы не можете голосовать в опросах
Вы не можете прикреплять файлы к сообщениям
Вы можете скачивать файлы