Статистика раздачи
Размер:  782 MB   |    Зарегистрирован:  8 месяцев 18 дней   |    Скачан:  0 раз

Полного источника не было: Никогда

 
     
 
 

serzh ®

Пол:
Не указан
Стаж:
8 месяцев 24 дня
Сообщений:
384

Полярная звезда / Звезда Норта / Northstar
Страна: США
Жанр: Фантастика
Год выпуска: 1986
Продолжительность: 01:01:22
Перевод: Одноголосый закадровый (помогите опознать)
Субтитры: нет
Оригинальная аудиодорожка: английский
Режиссер: Питер Левин / Peter Levin
В ролях: Грег Эвиган, Дебора Вэйкхэм, Митчелл Райан, Мейсон Эдамс, Дэвид Хейуорд, Сонни
Лэндэм, Робин Кертис, Ричард Гаррисон, Стивен Уильямс, Кен Фори
Описание: Подвергшись на орбите воздействию солнечной радиации, американский астронавт
возвращается на Землю супергероем, обладающим сверхспособностями и высочайшим
интеллектом.
Доп. информация: Дорожка с VO синхронизирована и наложена ale_x2008 при помощи Sony Vegas и VirtualDubMod.
За оцифрованную с VHS дорожку благодарим - d_rocker

Релиз
Сэмпл: https://yadi.sk/i/2KocyBawoACtYA
Качество видео: TVRip (by CG)
Формат видео: AVI
Видео: DivX Codec 4.x, 608x432 (1.41:1), 25 fps, 1446 kbps avg, 0.22 bit/pixel
Аудио: AC3 Dolby Digital, 48000Hz 2/0 (L,R) ch (mono), 192 kbps avg
Аудио 2: 48 kHz, MPEG Layer 3, 2 ch, ~128.00 kbps avg

MediaInfo

Полярная звезда - Northstar (by ale_x2008).avi
Format : AVI
Format/Info : Audio Video Interleave
File size : 782 MiB
Duration : 1 h 1 min
Overall bit rate : 1 781 kb/s
Movie name : Полярная звезда - Northstar (by ale_x2008)
Director : by ale_x2008
Writing application : VirtualDubMod 1.5.10.2 (build 2540/release)
Copyright : Edich2
Comment : RuTracker.org
Video
ID : 0
Format : MPEG-4 Visual
Format profile : Advanced Simple@L5
Format settings : BVOP1
Format settings, BVOP : 1
Format settings, QPel : No
Format settings, GMC : No warppoints
Format settings, Matrix : Default (H.263)
Codec ID : divx
Codec ID/Info : Mainly used by Google
Codec ID/Hint : DivX
Duration : 1 h 1 min
Bit rate : 1 447 kb/s
Width : 608 pixels
Height : 432 pixels
Display aspect ratio : 1.407
Frame rate : 25.000 FPS
Color space : YUV
Chroma subsampling : 4:2:0
Bit depth : 8 bits
Scan type : Progressive
Compression mode : Lossy
Bits/(Pixel*Frame) : 0.220
Stream size : 635 MiB (81%)
Writing library : XviD 1.1.0 (UTC 2005-11-22)
Audio #1
ID : 1
Format : AC-3
Format/Info : Audio Coding 3
Codec ID : 2000
Duration : 1 h 1 min
Bit rate mode : Constant
Bit rate : 192 kb/s
Channel(s) : 2 channels
Channel positions : Front: L R
Sampling rate : 48.0 kHz
Frame rate : 31.250 FPS (1536 SPF)
Bit depth : 16 bits
Compression mode : Lossy
Stream size : 84.3 MiB (11%)
Alignment : Split accross interleaves
Interleave, duration : 40 ms (1.00 video frame)
Interleave, preload duratio : 500 ms
Service kind : Complete Main
Audio #2
ID : 2
Format : MPEG Audio
Format version : Version 1
Format profile : Layer 3
Format settings : Joint stereo / MS Stereo
Codec ID : 55
Codec ID/Hint : MP3
Duration : 1 h 1 min
Bit rate mode : Constant
Bit rate : 128 kb/s
Channel(s) : 2 channels
Sampling rate : 48.0 kHz
Compression mode : Lossy
Stream size : 56.2 MiB (7%)
Alignment : Aligned on interleaves
Interleave, duration : 40 ms (1.00 video frame)
Interleave, preload duratio : 504 ms
Writing library : LAME3.97 (beta)

Скриншоты


[cybertorrent.net].t546.torrent 
Торрент: Зарегистрирован [ 2019-03-18 13:08 ] · 43F423E93C2B446D13488D0CB475DCB52A803449

Скачать .torrent

Скачать

16 KB

Статус: проверено
Скачан: 0 раз
Размер: 782 MB
terms.php
Профиль [ЛС]
Показать сообщения:    

Текущее время: 05-Дек 15:57

Часовой пояс: UTC ± 0



Вы не можете начинать темы
Вы не можете отвечать на сообщения
Вы не можете редактировать свои сообщения
Вы не можете удалять свои сообщения
Вы не можете голосовать в опросах
Вы не можете прикреплять файлы к сообщениям
Вы можете скачивать файлы