Статистика раздачи
Размер:  11,62 GB   |    Зарегистрирован:  6 месяцев 26 дней   |    Скачан:  0 раз

Полного источника не было: Никогда

   
 

Гость ®

Пол:
Не указан

Любовь с оружием
Производство: Кинокомпания "STAR MEDIA"
Жанр: криминал, мелодрама, детектив
Год выпуска: 2012
Продолжительность: ~ 45:00
Субтитры: Русские
Режиссёр: Сергей Чекалов
В ролях: Виктория Исакова, Павел Трубинер, Игорь Миркурбанов, Александр Гетманский, Петр Томашевский, Саак Дурян, Максим Записочный, Александр Кобзарь, Сергей Сипливый, Нина Антонова, Валерий Астахов, Виталина Библив, Лина Будник, Станислав Боклан, Дмитрий Гаврилов (II), Тарас Готовцев, Анатолий Зиновенко, Анастасия Касилова, Олег Примогенов, Владимир Ямненко, Дмитрий Суржиков
Описание: Любу и Максима можно было назвать идеальной парой. Они любили друг друга, жили душа в душу гражданским браком и готовились к свадьбе. Но одна ночь перечеркнула их счастливое совместное будущее раз и навсегда. Максим и Люба случайно сбили человека на одной из загородных трасс. Буквально спустя пару минут после столкновения на месте аварии, словно из ниоткуда, возникли свидетели, которые заявили, что готовы забыть обо всем, если Максим перепишет на них машину и заплатит крупную сумму. Мужчина быстро понял, что перед ним мошенники. Завязалась драка, которая закончилась еще одной трагедией: Максим погиб, а Люба попала в реанимацию. Придя в себя и осознав, что ее жизнь сломана, женщина решила встать на тропу мести и любой ценой найти виновных в случившемся.
Доп. информация:
Автор релиза -
Источник видео и аудио - HDTV 1080i TS - моя запись с канала "Наше Крутое HD"
Русские субтитры рипнуты мной с сайта MEGOGO
Рекламы нет!
Все раздачи сериала



Качество видео: HDTV 1080i
Формат видео: MKV
Видео кодек: MPEG-4
Аудио кодек 1: МР2
Аудио кодек 2: AC3
Видео: 1920x1080 (16:9), 25.000 fps, ~8400 kbps, ~ 0.162 bit/pixel
Аудио 1: 48000 Гц, 2 ch, 192 kbps
Аудио 2: 48000 Гц, 6 ch, 448 kbps
Формат субтитров: softsub (SRT)

MediaInfo

Общее
Уникальный идентификатор : 209129344792971455693087873345993209534 (0x9D54D8C3DDD77512B9B613F9F03A76BE)
Полное имя : D:\Любовь.с.оружием.2012.HDTV.1080i-ylnian\Любовь.с.оружием.2012.HDTV.1080i-ylnian_1.mkv
Формат : Matroska
Версия формата : Version 2
Размер файла : 2,89 Гбайт
Продолжительность : 43 м. 12 с.
Общий поток : 9590 Кбит/сек
Дата кодирования : UTC 2019-03-16 14:54:43
Программа кодирования : mkvmerge v5.8.0 ('No Sleep / Pillow') built on Sep 2 2012 15:37:04
Библиотека кодирования : libebml v1.2.3 + libmatroska v1.3.0
Видео
Идентификатор : 1
Формат : AVC
Формат/Информация : Advanced Video Codec
Профиль формата : Main@L4
Настройки формата : CABAC / 3 Ref Frames
Параметр CABAC формата : Да
Параметр RefFrames формата : 3 кадра
Идентификатор кодека : V_MPEG4/ISO/AVC
Продолжительность : 43 м. 12 с.
Битрейт : 8759 Кбит/сек
Ширина : 1920 пикселей
Высота : 1080 пикселей
Соотношение сторон : 16:9
Режим частоты кадров : Постоянный
Частота кадров : 25,000 кадров/сек
Цветовое пространство : YUV
Субдискретизация насыщенности : 4:2:0
Битовая глубина : 8 бит
Тип развёртки : Чересстрочная
Метод сохранения типа развёртки : Раздельные поля
Порядок развёртки : Верхнее поле первое
Бит/(Пиксели*Кадры) : 0.169
Размер потока : 2,64 Гбайт (91%)
Язык : Russian
Default : Да
Forced : Да
Цветовой диапазон : Limited
Основные цвета : BT.709
Характеристики трансфера : BT.709
Коэффициенты матрицы : BT.709
Аудио #1
Идентификатор : 2
Формат : AC-3
Формат/Информация : Audio Coding 3
Коммерческое название : Dolby Digital
Идентификатор кодека : A_AC3
Продолжительность : 43 м. 12 с.
Вид битрейта : Постоянный
Битрейт : 448 Кбит/сек
Каналы : 6 каналов
Channel layout : L R C LFE Ls Rs
Частота : 48,0 КГц
Частота кадров : 31,250 кадров/сек (1536 SPF)
Битовая глубина : 16 бит
Метод сжатия : С потерями
Размер потока : 138 Мбайт (5%)
Язык : Russian
ServiceKind/String : Complete Main
Default : Да
Forced : Да
Аудио #2
Идентификатор : 3
Формат : MPEG Audio
Версия формата : Version 1
Профиль формата : Layer 2
Идентификатор кодека : A_MPEG/L2
Идентификатор кодека/Подсказка : MP2
Продолжительность : 43 м. 12 с.
Вид битрейта : Постоянный
Битрейт : 192 Кбит/сек
Каналы : 2 канала
Частота : 48,0 КГц
Метод сжатия : С потерями
Размер потока : 59,3 Мбайт (2%)
Язык : Russian
Default : Нет
Forced : Нет
Текст
Идентификатор : 4
Формат : UTF-8
Идентификатор кодека : S_TEXT/UTF8
Идентификатор кодека/Информация : UTF-8 Plain Text
Язык : Russian
Default : Нет
Forced : Нет
Общее
Уникальный идентификатор : 185796985767848309769397913560799725423 (0x8BC732A61522EE09B374B75EAD4B476F)
Полное имя : D:\Любовь.с.оружием.2012.HDTV.1080i-ylnian\Любовь.с.оружием.2012.HDTV.1080i-ylnian_2.mkv
Формат : Matroska
Версия формата : Version 2
Размер файла : 2,98 Гбайт
Продолжительность : 44 м. 54 с.
Общий поток : 9502 Кбит/сек
Дата кодирования : UTC 2019-03-16 14:56:15
Программа кодирования : mkvmerge v5.8.0 ('No Sleep / Pillow') built on Sep 2 2012 15:37:04
Библиотека кодирования : libebml v1.2.3 + libmatroska v1.3.0
Видео
Идентификатор : 1
Формат : AVC
Формат/Информация : Advanced Video Codec
Профиль формата : Main@L4
Настройки формата : CABAC / 3 Ref Frames
Параметр CABAC формата : Да
Параметр RefFrames формата : 3 кадра
Идентификатор кодека : V_MPEG4/ISO/AVC
Продолжительность : 44 м. 54 с.
Битрейт : 8673 Кбит/сек
Ширина : 1920 пикселей
Высота : 1080 пикселей
Соотношение сторон : 16:9
Режим частоты кадров : Постоянный
Частота кадров : 25,000 кадров/сек
Цветовое пространство : YUV
Субдискретизация насыщенности : 4:2:0
Битовая глубина : 8 бит
Тип развёртки : Чересстрочная
Метод сохранения типа развёртки : Раздельные поля
Порядок развёртки : Верхнее поле первое
Бит/(Пиксели*Кадры) : 0.167
Размер потока : 2,72 Гбайт (91%)
Язык : Russian
Default : Да
Forced : Да
Цветовой диапазон : Limited
Основные цвета : BT.709
Характеристики трансфера : BT.709
Коэффициенты матрицы : BT.709
Аудио #1
Идентификатор : 2
Формат : AC-3
Формат/Информация : Audio Coding 3
Коммерческое название : Dolby Digital
Идентификатор кодека : A_AC3
Продолжительность : 44 м. 54 с.
Вид битрейта : Постоянный
Битрейт : 448 Кбит/сек
Каналы : 6 каналов
Channel layout : L R C LFE Ls Rs
Частота : 48,0 КГц
Частота кадров : 31,250 кадров/сек (1536 SPF)
Битовая глубина : 16 бит
Метод сжатия : С потерями
Размер потока : 144 Мбайт (5%)
Язык : Russian
ServiceKind/String : Complete Main
Default : Да
Forced : Да
Аудио #2
Идентификатор : 3
Формат : MPEG Audio
Версия формата : Version 1
Профиль формата : Layer 2
Идентификатор кодека : A_MPEG/L2
Идентификатор кодека/Подсказка : MP2
Продолжительность : 44 м. 54 с.
Вид битрейта : Постоянный
Битрейт : 192 Кбит/сек
Каналы : 2 канала
Частота : 48,0 КГц
Метод сжатия : С потерями
Размер потока : 61,7 Мбайт (2%)
Язык : Russian
Default : Нет
Forced : Нет
Текст
Идентификатор : 4
Формат : UTF-8
Идентификатор кодека : S_TEXT/UTF8
Идентификатор кодека/Информация : UTF-8 Plain Text
Язык : Russian
Default : Нет
Forced : Нет
Общее
Уникальный идентификатор : 215439954539496556444355452408410797772 (0xA21439D8F0D93265BD307797C6D1F6CC)
Полное имя : D:\Любовь.с.оружием.2012.HDTV.1080i-ylnian\Любовь.с.оружием.2012.HDTV.1080i-ylnian_3.mkv
Формат : Matroska
Версия формата : Version 2
Размер файла : 2,85 Гбайт
Продолжительность : 43 м. 56 с.
Общий поток : 9295 Кбит/сек
Дата кодирования : UTC 2019-03-16 14:57:56
Программа кодирования : mkvmerge v5.8.0 ('No Sleep / Pillow') built on Sep 2 2012 15:37:04
Библиотека кодирования : libebml v1.2.3 + libmatroska v1.3.0
Видео
Идентификатор : 1
Формат : AVC
Формат/Информация : Advanced Video Codec
Профиль формата : Main@L4
Настройки формата : CABAC / 3 Ref Frames
Параметр CABAC формата : Да
Параметр RefFrames формата : 3 кадра
Идентификатор кодека : V_MPEG4/ISO/AVC
Продолжительность : 43 м. 56 с.
Битрейт : 8470 Кбит/сек
Ширина : 1920 пикселей
Высота : 1080 пикселей
Соотношение сторон : 16:9
Режим частоты кадров : Постоянный
Частота кадров : 25,000 кадров/сек
Цветовое пространство : YUV
Субдискретизация насыщенности : 4:2:0
Битовая глубина : 8 бит
Тип развёртки : Чересстрочная
Метод сохранения типа развёртки : Раздельные поля
Порядок развёртки : Верхнее поле первое
Бит/(Пиксели*Кадры) : 0.163
Размер потока : 2,60 Гбайт (91%)
Язык : Russian
Default : Да
Forced : Да
Цветовой диапазон : Limited
Основные цвета : BT.709
Характеристики трансфера : BT.709
Коэффициенты матрицы : BT.709
Аудио #1
Идентификатор : 2
Формат : AC-3
Формат/Информация : Audio Coding 3
Коммерческое название : Dolby Digital
Идентификатор кодека : A_AC3
Продолжительность : 43 м. 56 с.
Вид битрейта : Постоянный
Битрейт : 448 Кбит/сек
Каналы : 6 каналов
Channel layout : L R C LFE Ls Rs
Частота : 48,0 КГц
Частота кадров : 31,250 кадров/сек (1536 SPF)
Битовая глубина : 16 бит
Метод сжатия : С потерями
Размер потока : 141 Мбайт (5%)
Язык : Russian
ServiceKind/String : Complete Main
Default : Да
Forced : Да
Аудио #2
Идентификатор : 3
Формат : MPEG Audio
Версия формата : Version 1
Профиль формата : Layer 2
Идентификатор кодека : A_MPEG/L2
Идентификатор кодека/Подсказка : MP2
Продолжительность : 43 м. 56 с.
Вид битрейта : Постоянный
Битрейт : 192 Кбит/сек
Каналы : 2 канала
Частота : 48,0 КГц
Метод сжатия : С потерями
Размер потока : 60,3 Мбайт (2%)
Язык : Russian
Default : Нет
Forced : Нет
Текст
Идентификатор : 4
Формат : UTF-8
Идентификатор кодека : S_TEXT/UTF8
Идентификатор кодека/Информация : UTF-8 Plain Text
Язык : Russian
Default : Нет
Forced : Нет
Общее
Уникальный идентификатор : 248284112276288983407613757834476987867 (0xBAC9C7D8FF0D6B71B28D35FBDE7925DB)
Полное имя : D:\Любовь.с.оружием.2012.HDTV.1080i-ylnian\Любовь.с.оружием.2012.HDTV.1080i-ylnian_4.mkv
Формат : Matroska
Версия формата : Version 2
Размер файла : 2,89 Гбайт
Продолжительность : 46 м. 3 с.
Общий поток : 8995 Кбит/сек
Дата кодирования : UTC 2019-03-16 14:59:28
Программа кодирования : mkvmerge v5.8.0 ('No Sleep / Pillow') built on Sep 2 2012 15:37:04
Библиотека кодирования : libebml v1.2.3 + libmatroska v1.3.0
Видео
Идентификатор : 1
Формат : AVC
Формат/Информация : Advanced Video Codec
Профиль формата : Main@L4
Настройки формата : CABAC / 3 Ref Frames
Параметр CABAC формата : Да
Параметр RefFrames формата : 3 кадра
Идентификатор кодека : V_MPEG4/ISO/AVC
Продолжительность : 46 м. 3 с.
Битрейт : 8176 Кбит/сек
Ширина : 1920 пикселей
Высота : 1080 пикселей
Соотношение сторон : 16:9
Режим частоты кадров : Постоянный
Частота кадров : 25,000 кадров/сек
Цветовое пространство : YUV
Субдискретизация насыщенности : 4:2:0
Битовая глубина : 8 бит
Тип развёртки : Чересстрочная
Метод сохранения типа развёртки : Раздельные поля
Порядок развёртки : Верхнее поле первое
Бит/(Пиксели*Кадры) : 0.158
Размер потока : 2,63 Гбайт (91%)
Язык : Russian
Default : Да
Forced : Да
Цветовой диапазон : Limited
Основные цвета : BT.709
Характеристики трансфера : BT.709
Коэффициенты матрицы : BT.709
Аудио #1
Идентификатор : 2
Формат : AC-3
Формат/Информация : Audio Coding 3
Коммерческое название : Dolby Digital
Идентификатор кодека : A_AC3
Продолжительность : 46 м. 3 с.
Вид битрейта : Постоянный
Битрейт : 448 Кбит/сек
Каналы : 6 каналов
Channel layout : L R C LFE Ls Rs
Частота : 48,0 КГц
Частота кадров : 31,250 кадров/сек (1536 SPF)
Битовая глубина : 16 бит
Метод сжатия : С потерями
Размер потока : 148 Мбайт (5%)
Язык : Russian
ServiceKind/String : Complete Main
Default : Да
Forced : Да
Аудио #2
Идентификатор : 3
Формат : MPEG Audio
Версия формата : Version 1
Профиль формата : Layer 2
Идентификатор кодека : A_MPEG/L2
Идентификатор кодека/Подсказка : MP2
Продолжительность : 46 м. 3 с.
Вид битрейта : Постоянный
Битрейт : 192 Кбит/сек
Каналы : 2 канала
Частота : 48,0 КГц
Метод сжатия : С потерями
Размер потока : 63,2 Мбайт (2%)
Язык : Russian
Default : Нет
Forced : Нет
Текст
Идентификатор : 4
Формат : UTF-8
Идентификатор кодека : S_TEXT/UTF8
Идентификатор кодека/Информация : UTF-8 Plain Text
Язык : Russian
Default : Нет
Forced : Нет
[cybertorrent.net].t544.torrent 
Торрент: Зарегистрирован [ 2019-03-18 13:08 ] · FAFAFBF2BA476070B1A777FB01790069A64D7082

Скачать .torrent

Скачать

59 KB

Статус: проверено
Скачан: 0 раз
Размер: 11,62 GB
terms.php
Показать сообщения:    

Текущее время: 13-Окт 22:14

Часовой пояс: UTC ± 0



Вы не можете начинать темы
Вы не можете отвечать на сообщения
Вы не можете редактировать свои сообщения
Вы не можете удалять свои сообщения
Вы не можете голосовать в опросах
Вы не можете прикреплять файлы к сообщениям
Вы можете скачивать файлы