Статистика раздачи
Размер:  2,18 GB   |    Зарегистрирован:  7 месяцев 28 дней   |    Скачан:  0 раз

Полного источника не было: Никогда

 
     
 
 

Гость ®

Пол:
Не указан

Т-34
Год выхода: 2018
Страна: Россия
Жанр: драма, военный, приключения
Продолжительность: 02:19:07
Субтитры: нет-Режиссер:
Алексей Сидоров-В ролях:
Александр Петров, Виктор Добронравов, Ирина Старшенбаум, Винценц Кифер, Петр Скворцов, Семен Трескунов, Артем Быстров, Антон Богданов, Василий Уриевский, Василий Буткевич-О фильме:
Во времена величайших испытаний человечества, когда от каждого действия зависят жизни любимых, два заклятых врага начнут свое противостояние.
Оказавшись в плену, вчерашний курсант Ивушкин планирует дерзкий побег. Он собирает свой экипаж и на легендарной «тридцатьчетверке» бросает вызов немецким танковым асам во главе с Ягером. Ради своей любви и Родины он готов идти до конца.
-Качество: WEB-DLRip
Формат: AVI
Видео : 720x304 (2.37:1), 24.000 fps, XviD build 73 ~1854 kbps avg, 0.35 bit/pixel
Аудио : 48 kHz, AC3 Dolby Digital, 3/2 (L,C,R,l,r) + LFE ch, ~384 kbps - iTunes-[box]Сэмпл[/box]-

MediaInfo

Код:Формат : AVI
Формат/Информация : Audio Video Interleave
Профиль формата : OpenDML
Размер файла : 2,18 Гбайт
Продолжительность : 2 ч. 19 м.
Общий поток : 2245 Кбит/сек
Программа кодирования : VirtualDubMod 1.5.10.3 | www.virtualdub-fr.org || (build 2550/release)
Библиотека кодирования : VirtualDubMod build 2550/release
Видео
Идентификатор : 0
Формат : MPEG-4 Visual
Профиль формата : Advanced Simple@L5
Настройки формата : BVOP1 / Custom Matrix
Параметр BVOP формата : 1
Параметр QPel формата : Нет
Параметр GMC формата : Без точки перехода
Параметр матрицы формата : Выборочная
Идентификатор кодека : XVID
Идентификатор кодека/Подсказка : XviD
Продолжительность : 2 ч. 19 м.
Битрейт : 1850 Кбит/сек
Ширина : 720 пикселей
Высота : 304 пикселя
Соотношение сторон : 2,35:1
Частота кадров : 24,000 кадра/сек
Цветовое пространство : YUV
Субдискретизация насыщенности : 4:2:0
Битовая глубина : 8 бит
Тип развёртки : Прогрессивная
Метод сжатия : С потерями
Бит/(Пиксели*Кадры) : 0.352
Размер потока : 1,80 Гбайт (82%)
Библиотека кодирования : XviD 73
Аудио
Идентификатор : 1
Формат : AC-3
Формат/Информация : Audio Coding 3
Коммерческое название : Dolby Digital
Идентификатор кодека : 2000
Продолжительность : 2 ч. 19 м.
Вид битрейта : Постоянный
Битрейт : 384 Кбит/сек
Каналы : 6 каналов
Channel layout : L R C LFE Ls Rs
Частота : 48,0 КГц
Частота кадров : 31,250 кадров/сек (1536 SPF)
Битовая глубина : 16 бит
Метод сжатия : С потерями
Размер потока : 382 Мбайт (17%)
Выравнивание : Разделение по промежуткам
Продолжительность промежутка : 42 мс. (1,00 видеокадр)
Время предзагрузки промежутка : 500 мс.
ServiceKind/String : Complete Main

Скриншоты


[cybertorrent.net].t532.torrent 
Торрент: Зарегистрирован [ 2019-03-18 13:08 ] · A8EC9593E9DA93F464F9D82D928EEFE117B72BB4

Скачать .torrent

Скачать

11 KB

Статус: проверено
Скачан: 0 раз
Размер: 2,18 GB
terms.php
Показать сообщения:    

Текущее время: 15-Ноя 18:23

Часовой пояс: UTC ± 0



Вы не можете начинать темы
Вы не можете отвечать на сообщения
Вы не можете редактировать свои сообщения
Вы не можете удалять свои сообщения
Вы не можете голосовать в опросах
Вы не можете прикреплять файлы к сообщениям
Вы можете скачивать файлы