Статистика раздачи
Размер:  1,46 GB   |    Зарегистрирован:  7 месяцев 24 дня   |    Скачан:  0 раз

Полного источника не было: Никогда

 
     
 
 

солнышко ®

Пол:
Не указан
Стаж:
7 месяцев 30 дней
Сообщений:
565

Министр / Il ministro- Страна: Италия
Жанр: драма, трагикомедия
Год выпуска: 2016
Продолжительность: 01:39:22
Перевод: Профессиональный (многоголосый закадровый)
Субтитры: нет
Оригинальная аудиодорожка: нет-Режиссер: Джорджио Амато / Giorgio Amato-В ролях: Джанмарко Тоньяцци, Джун Ичикава, Эдоардо Пеше, Алессия Барела, Джулия Гуалано, Ира Фронтен, Фортунато Серлино, Джанлука Д’Эрколе, Алессио Де Персио, Федерико Мелис
Описание: Франко Луччи, предприниматель на грани банкротства, видит единственную возможность сохранить бизнес: обратиться за помощью к своему давнему приятелю, министру. Он приглашает его на званый ужин, и все должно быть идеально: лучшее вино, солидное вознаграждение и очаровательная девушка, готовая лечь с министром в постель. Девушку должен найти шурин героя. И он находит… но совсем не такую, как все ожидали увидеть. Кажется, из-за девушки планы Франко под угрозой.-Сэмпл | Кинопоиск-Качество видео: WEB-DLRip-AVC
Формат видео: MKV
Видео: x264 (High@L4.1); 1152x484, Display aspect ratio 2.380:1, 25.000 fps, 1720 Kbps
Аудио: Русский: AC-3; 16 bits 48 Khz; 5.1ch 384 Kbps; CBR | MVO (по заказу "ПилотКино") iTunes

MediaInfo

x264 log

avs [info]: 1152x484p 1:1 @ 25/1 fps (cfr)
avs [info]: color matrix: bt709
x264 [info]: using SAR=1/1
x264 [info]: using cpu capabilities: MMX2 SSE2Fast SSSE3 SSE4.2
x264 [info]: profile High, level 4.1, 4:2:0, 8-bit
x264 [info]: frame I:1009 Avg QP:16.18 size: 49177
x264 [info]: frame P:38662 Avg QP:18.17 size: 16862
x264 [info]: frame B:109378 Avg QP:18.86 size: 5275
x264 [info]: consecutive B-frames: 2.5% 4.2% 5.6% 64.8% 7.9% 12.1% 1.2% 1.4% 0.2% 0.2%
x264 [info]: mb I I16..4: 7.7% 74.2% 18.1%
x264 [info]: mb P I16..4: 1.0% 6.9% 1.2% P16..4: 36.6% 36.6% 8.9% 0.9% 0.1% skip: 7.9%
x264 [info]: mb B I16..4: 0.1% 0.7% 0.2% B16..8: 36.0% 19.4% 2.3% direct: 4.6% skip:36.8% L0:42.5% L1:46.3% BI:11.2%
x264 [info]: 8x8 transform intra:74.6% inter:57.8%
x264 [info]: direct mvs spatial:99.0% temporal:1.0%
x264 [info]: coded y,uvDC,uvAC intra: 75.8% 79.3% 54.1% inter: 15.1% 18.9% 7.9%
x264 [info]: i16 v,h,dc,p: 39% 10% 4% 47%
x264 [info]: i8 v,h,dc,ddl,ddr,vr,hd,vl,hu: 17% 8% 11% 8% 11% 12% 10% 12% 12%
x264 [info]: i4 v,h,dc,ddl,ddr,vr,hd,vl,hu: 37% 7% 9% 6% 9% 9% 8% 7% 7%
x264 [info]: i8c dc,h,v,p: 33% 28% 22% 16%
x264 [info]: Weighted P-Frames: Y:0.6% UV:0.3%
x264 [info]: ref P L0: 48.5% 7.3% 18.9% 6.0% 5.6% 3.5% 3.5% 1.7% 1.8% 1.4% 1.6% 0.0% 0.0%
x264 [info]: ref B L0: 77.1% 10.6% 4.5% 2.4% 1.6% 1.4% 1.0% 0.7% 0.5% 0.3%
x264 [info]: ref B L1: 96.2% 3.8%
x264 [info]: kb/s:1715.57
-General
Unique ID : 223959972307715141836291598002463591053 (0xA87D1F27CE96ED1496C0630CBDBE4A8D)
Complete name : Министр.2016.mkv
Format : Matroska
Format version : Version 2
File size : 1.46 GiB
Duration : 1 h 39 min
Overall bit rate : 2 101 kb/s
Encoded date : UTC 2019-03-15 10:30:13
Writing application : mkvmerge v7.8.0 ('River Man') 32bit built on Mar 27 2015 16:18:02
Writing library : libebml v1.3.1 + libmatroska v1.4.2
Video
ID : 1
Format : AVC
Format/Info : Advanced Video Codec
Format profile : High@L4.1
Format settings : CABAC / 11 Ref Frames
Format settings, CABAC : Yes
Format settings, ReFrames : 11 frames
Codec ID : V_MPEG4/ISO/AVC
Duration : 1 h 39 min
Bit rate : 1 720 kb/s
Width : 1 152 pixels
Height : 484 pixels
Display aspect ratio : 2.40:1
Frame rate mode : Constant
Frame rate : 25.000 FPS
Color space : YUV
Chroma subsampling : 4:2:0
Bit depth : 8 bits
Scan type : Progressive
Bits/(Pixel*Frame) : 0.123
Stream size : 1.16 GiB (80%)
Title : Министр / Il ministro 2016
Writing library : x264 core 157 r2867+103 0d6443f t_mod_Custom_2 [8-bit@all X86]
Encoding settings : cabac=1 / ref=11 / deblock=1:-3:-2 / analyse=0x3:0x133 / me=umh / subme=11 / psy=1 / fade_compensate=0.00 / psy_rd=1.02:0.10 / mixed_ref=1 / me_range=40 / chroma_me=1 / trellis=2 / 8x8dct=1 / cqm=0 / deadzone=21,11 / fast_pskip=0 / chroma_qp_offset=-3 / threads=12 / lookahead_threads=2 / sliced_threads=0 / nr=0 / decimate=0 / interlaced=0 / bluray_compat=0 / constrained_intra=0 / fgo=0 / bframes=9 / b_pyramid=2 / b_adapt=2 / b_bias=0 / direct=3 / weightb=1 / open_gop=0 / weightp=2 / keyint=250 / keyint_min=25 / scenecut=40 / intra_refresh=0 / rc_lookahead=80 / rc=2pass / mbtree=0 / bitrate=1720 / ratetol=1.0 / qcomp=0.65 / qpmin=0:0:0 / qpmax=69:69:69 / qpstep=4 / cplxblur=20.0 / qblur=0.5 / vbv_maxrate=62500 / vbv_bufsize=78125 / nal_hrd=none / filler=0 / ip_ratio=1.30 / pb_ratio=1.25 / aq=1:1.00 / aq-sensitivity=10.00 / aq-factor=1.00:1.00:1.00 / aq2=0 / aq3=0 / zones=143946,149049,q=30
Language : Italian
Default : Yes
Forced : No
Color range : Limited
Color primaries : BT.709
Transfer characteristics : BT.709
Matrix coefficients : BT.709
Audio
ID : 2
Format : AC-3
Format/Info : Audio Coding 3
Codec ID : A_AC3
Duration : 1 h 39 min
Bit rate mode : Constant
Bit rate : 384 kb/s
Channel(s) : 6 channels
Channel positions : Front: L C R, Side: L R, LFE
Sampling rate : 48.0 kHz
Frame rate : 31.250 FPS (1536 SPF)
Bit depth : 16 bits
Compression mode : Lossy
Stream size : 273 MiB (18%)
Title : AC-3; 16 bits 48 Khz; 5.1ch 384 Kbps; CBR | MVO (по заказу "ПилотКино") iTunes
Language : Russian
Service kind : Complete Main
Default : Yes
Forced : No

Скриншоты

[cybertorrent.net].t523.torrent 
Торрент: Зарегистрирован [ 2019-03-18 13:08 ] · EF749F0576D60BE6B834EAE0D6CF9CC3646CB124

Скачать .torrent

Скачать

15 KB

Статус: проверено
Скачан: 0 раз
Размер: 1,46 GB
terms.php
Профиль ЛС
Показать сообщения:    

Текущее время: 11-Ноя 20:39

Часовой пояс: UTC ± 0



Вы не можете начинать темы
Вы не можете отвечать на сообщения
Вы не можете редактировать свои сообщения
Вы не можете удалять свои сообщения
Вы не можете голосовать в опросах
Вы не можете прикреплять файлы к сообщениям
Вы можете скачивать файлы