Статистика раздачи
Размер:  1,46 GB   |    Зарегистрирован:  3 месяца 28 дней   |    Скачан:  0 раз
Сидов:  494  [  0 KB/s  ]   Личеров:  11  [  0 KB/s  ]  
 
     
 
 

Гость ®

Пол:
Не указан

Аладдин / Aladdin- Год выхода: 2019
Страна: США
Жанр: мюзикл, фэнтези, мелодрама, комедия, приключения, семейный
Продолжительность: 02:07:58
Перевод: Любительский (многоголосый закадровый) HDRezka Studio
Субтитры: Английские (полные, SDH) (внешние *.srt)
Оригинальная аудиодорожка: Английская-Режиссер:
Гай Ричи / Guy Ritchie-В ролях:
Мена Массуд, Наоми Скотт, Уилл Смит, Билли Магнуссен, Алан Тьюдик, Назим Педрад, Марван Кензари, Нуман Аджар, Фрэнк Уэлкер, Навид Негабан-О фильме:
Молодой воришка по имени Аладдин хочет стать принцем, чтобы жениться на принцессе Жасмин. Тем временем визирь Аграбы Джафар намеревается захватить власть над Аграбой, а для этого он стремится заполучить волшебную лампу, хранящуюся в пещере чудес, доступ к которой разрешен лишь тому, кого называют «алмаз неограненный», и этим человеком является не кто иной, как сам Аладдин.-Релиз групп | | IMDB | КиноПоиск | Сэмпл |-Качество: WEB-DLRip
Формат: AVI
Видео: 720x304 (2.37:1), 23.976 fps, XviD build 67 ~1237 kbps avg, 0.24 bit/pixel
Аудио #1: 48 kHz, AC3 Dolby Digital, 2/0 (L,R) ch, ~192 kbps avg (RUS)
Аудио #2: 48 kHz, AC3 Dolby Digital, 2/0 (L,R) ch, ~192 kbps avg (ENG)-

Скриншоты

-

MediaInfo

Код:Полное имя : D:\Aladdin_2019_WEB-DLRip_MVO_by_Dalemake.avi
Формат : AVI
Формат/Информация : Audio Video Interleave
Размер файла : 1,46 Гбайт
Продолжительность : 2 ч. 7 м.
Общий поток : 1636 Кбит/сек
Программа кодирования : VirtualDubMod 1.5.10.3 | www.virtualdub-fr.org || (build 2550/release)
Библиотека кодирования : VirtualDubMod build 2550/release
Видео
Идентификатор : 0
Формат : MPEG-4 Visual
Профиль формата : Advanced Simple@L5
Настройки формата : BVOP1 / Custom Matrix
Параметр BVOP формата : 1
Параметр QPel формата : Нет
Параметр GMC формата : Без точки перехода
Параметр матрицы формата : Выборочная
Идентификатор кодека : XVID
Идентификатор кодека/Подсказка : XviD
Продолжительность : 2 ч. 7 м.
Битрейт : 1238 Кбит/сек
Ширина : 720 пикселей
Высота : 304 пикселя
Соотношение сторон : 2,35:1
Частота кадров : 23,976 (24000/1001) кадра/сек
Цветовое пространство : YUV
Субдискретизация насыщенности : 4:2:0
Битовая глубина : 8 бит
Тип развёртки : Прогрессивная
Метод сжатия : С потерями
Бит/(Пиксели*Кадры) : 0.236
Размер потока : 1,11 Гбайт (76%)
Библиотека кодирования : XviD 67
Аудио #1
Идентификатор : 1
Формат : AC-3
Формат/Информация : Audio Coding 3
Коммерческое название : Dolby Digital
Идентификатор кодека : 2000
Продолжительность : 2 ч. 7 м.
Вид битрейта : Постоянный
Битрейт : 192 Кбит/сек
Каналы : 2 канала
ChannelLayout : L R
Частота : 48,0 КГц
Частота кадров : 31,250 кадров/сек (1536 SPF)
Битовая глубина : 16 бит
Метод сжатия : С потерями
Размер потока : 176 Мбайт (12%)
Выравнивание : Разделение по промежуткам
Продолжительность промежутка : 42 мс. (1,00 видеокадр)
Время предзагрузки промежутка : 500 мс.
ServiceKind/String : Complete Main
Аудио #2
Идентификатор : 2
Формат : AC-3
Формат/Информация : Audio Coding 3
Коммерческое название : Dolby Digital
Идентификатор кодека : 2000
Продолжительность : 2 ч. 7 м.
Вид битрейта : Постоянный
Битрейт : 192 Кбит/сек
Каналы : 2 канала
ChannelLayout : L R
Частота : 48,0 КГц
Частота кадров : 31,250 кадров/сек (1536 SPF)
Битовая глубина : 16 бит
Метод сжатия : С потерями
Размер потока : 176 Мбайт (12%)
Выравнивание : Разделение по промежуткам
Продолжительность промежутка : 42 мс. (1,00 видеокадр)
Время предзагрузки промежутка : 500 мс.
ServiceKind/String : Complete Main
-
[cybertorrent.net].t5220.torrent 
Торрент: Зарегистрирован [ 2019-08-12 16:23 ] · E4665A214D2F1DA961A88E316442AC9AE8FDF89E

Скачать .torrent

Скачать

15 KB

Статус: проверено
Скачан: 0 раз
Размер: 1,46 GB
terms.php
Показать сообщения:    

Текущее время: 10-Дек 00:04

Часовой пояс: UTC ± 0



Вы не можете начинать темы
Вы не можете отвечать на сообщения
Вы не можете редактировать свои сообщения
Вы не можете удалять свои сообщения
Вы не можете голосовать в опросах
Вы не можете прикреплять файлы к сообщениям
Вы можете скачивать файлы