Статистика раздачи
Размер:  109 MB   |    Зарегистрирован:  6 месяцев 28 дней   |    Скачан:  0 раз

Полного источника не было: Никогда

   
 

Гость ®

Пол:
Не указан

Круг жизни
Страна: Россия
Жанр: мультфильм
Продолжительность: 00:08:30
Год выпуска: 2015
Русские субтитры: нет
Режиссёр: Кирилл Кравченко
Описание: Тибетская сказка о маленькой птичке, которая пыталась защитить свое гнездо от ящерицы и искала защиты у сильной птицы Феникс.
Качество: WEBRip
Формат: AVI
Видео: 1595 kbps, 720х400 (16:9), 25.000 fps, MPEG-4 Visual (XviD)
Аудио: 192 kbps, 44.1 kHz, 2 channels, MPEG Audio (MP3)
Субтитры: отсутствуют

Подробные технические данные

General
Complete name : Круг жизни (2015).avi
Format : AVI
Format/Info : Audio Video Interleave
File size : 109 MiB
Duration : 8mn 30s
Overall bit rate : 1 799 Kbps
Writing application : MEncoder SVN-r30881(20100311-gcc4.3.3)
Writing library : MPlayer
Video
ID : 0
Format : MPEG-4 Visual
Format profile : Advanced Simple@L5
Format settings, BVOP : 2
Format settings, QPel : No
Format settings, GMC : No warppoints
Format settings, Matrix : Default (H.263)
Codec ID : XVID
Codec ID/Hint : XviD
Duration : 8mn 30s
Bit rate : 1 595 Kbps
Width : 720 pixels
Height : 400 pixels
Display aspect ratio : 16:9
Original display aspect ratio : 16:9
Frame rate : 25.000 fps
Color space : YUV
Chroma subsampling : 4:2:0
Bit depth : 8 bits
Scan type : Progressive
Compression mode : Lossy
Bits/(Pixel*Frame) : 0.222
Stream size : 97.0 MiB (89%)
Writing library : XviD 1.2.1 (UTC 2008-12-04)
Audio
ID : 1
Format : MPEG Audio
Format version : Version 1
Format profile : Layer 3
Mode : Joint stereo
Mode extension : MS Stereo
Codec ID : 55
Codec ID/Hint : MP3
Duration : 8mn 30s
Bit rate mode : Constant
Bit rate : 192 Kbps
Channel(s) : 2 channels
Sampling rate : 44.1 KHz
Compression mode : Lossy
Delay relative to video : 40ms
Stream size : 11.7 MiB (11%)
Alignment : Aligned on interleaves
Interleave, duration : 26 ms (0.65 video frame)
Interleave, preload duration : 522 ms
Writing library : LAME3.98

Скриншоты

[cybertorrent.net].t522.torrent 
Торрент: Зарегистрирован [ 2019-03-18 13:08 ] · E1B323D72D6582EC0F58886C5152A73B42602A99

Скачать .torrent

Скачать

18 KB

Статус: проверено
Скачан: 0 раз
Размер: 109 MB
terms.php
Показать сообщения:    

Текущее время: 15-Окт 21:05

Часовой пояс: UTC ± 0



Вы не можете начинать темы
Вы не можете отвечать на сообщения
Вы не можете редактировать свои сообщения
Вы не можете удалять свои сообщения
Вы не можете голосовать в опросах
Вы не можете прикреплять файлы к сообщениям
Вы можете скачивать файлы