Статистика раздачи
Размер:  2,15 GB   |    Зарегистрирован:  3 месяца 28 дней   |    Скачан:  0 раз

Полного источника не было: Никогда

 
     
 
 

serzh ®

Пол:
Не указан
Стаж:
8 месяцев 28 дней
Сообщений:
384

Сумасшедшие люди / Crazy People
Страна: США
Жанр: комедия
Год выпуска: 1990
Продолжительность: 01:31:29
Перевод 1: Одноголосый закадровый "Мир-Дружбы"
Перевод 2: Авторский (одноголосый закадровый) Василия Горчакова
Субтитры: английские
Оригинальная аудиодорожка: английский
Режиссер: Тони Билл /Tony Bill/
В ролях: Дадли Мур /Dudley Moore/, Дэрил Ханна /Daryl Hannah/, Пол Райзер /Paul Reiser/, Даг Ясуда /Doug Yasuda/, Мерседес Руэл /Mercedes Ruehl/, Билл Смитрович /Bill Smitrovich/, Алан Норт /Alan North/, Дж.Т.Уолш /J. T. Walsh/, Дэвид Пэймер /David Paymer/, Флойд Вивино /Floyd Vivino/, Пол Бэйтс /Paul Bates/, Дик Кьюсак /Dick Cusack/, Дэнтон Стоун /Danton Stone/, Бен Хэммер /Ben Hammer/...
Рецензия Михаила Иванова: Когда переутомившийся работник рекламного агенства предлагает резать правду-матку в рекламе, его, естественно, отправляют в психушку. Там он знакомится с чокнутой блондинкой и группой не менее чокнутых пациентов. Ну а потом все сходят с ума, потому что публике безумно нравится предложенное им новое мышление в рекламе.
Доп. информация: исходный Crazy.People.1990.1080p.WEBRip.3xRus.Eng.HDCLUB.mkv из кинозала от RSerenkiy; Мир-Дружбу оцифровал и подготовил karlll
Качество видео: WEBRip-AVC ~СЭМПЛ~
Формат видео: MKV
Видео: MPEG4 Video (H264) 720x404 23.976fps 2525Kbps
Аудио 1: Dolby AC3 48KHz 2ch 192Kbps - МД
Аудио 2: Dolby AC3 48KHz 2ch 192Kbps - ВГ
Аудио 3: Dolby AC3 48KHz 6ch 448Kbps - EN
Формат субтитров: softsub (SRT)

MediaInfo

Format : Matroska
Format version : Version 2
File size : 2.15 GiB
Duration : 1 h 31 min
Overall bit rate : 3 358 kb/s
Movie name : CRAZY PEOPLE_1990_WEBRIP_МИРДРУЖБА_ГОРЧАКОВ_ENG_KBC
Encoded date : UTC 2019-08-11 12:35:46
Writing application : mkvmerge v6.9.1 ('Blue Panther') 32bit built on Apr 18 2014 18:15:44
Writing library : libebml v1.3.0 + libmatroska v1.4.1
Video
ID : 1
Format : AVC
Format/Info : Advanced Video Codec
Format profile : High@L3.1
Format settings : CABAC / 7 Ref Frames
Format settings, CABAC : Yes
Format settings, RefFrames : 7 frames
Codec ID : V_MPEG4/ISO/AVC
Duration : 1 h 31 min
Bit rate : 2 525 kb/s
Width : 720 pixels
Height : 404 pixels
Display aspect ratio : 16:9
Frame rate mode : Constant
Frame rate : 23.976 (24000/1001) FPS
Color space : YUV
Chroma subsampling : 4:2:0
Bit depth : 8 bits
Scan type : Progressive
Bits/(Pixel*Frame) : 0.362
Stream size : 1.57 GiB (73%)
Title : CRAZY PEOPLE_1990
Writing library : x264 core 152 r2851kMod ba24899
Encoding settings : cabac=1 / ref=7 / deblock=1:-1:-1 / analyse=0x3:0x113 / me=umh / subme=9 / psy=1 / fade_compensate=0.00 / psy_rd=1.00:0.20 / mixed_ref=1 / me_range=24 / chroma_me=1 / trellis=2 / 8x8dct=1 / cqm=0 / deadzone=21,11 / fast_pskip=0 / chroma_qp_offset=-3 / threads=6 / lookahead_threads=1 / sliced_threads=0 / nr=0 / decimate=0 / interlaced=0 / bluray_compat=0 / constrained_intra=0 / bframes=7 / b_pyramid=2 / b_adapt=2 / b_bias=0 / direct=3 / weightb=1 / open_gop=0 / weightp=2 / keyint=250 / keyint_min=23 / scenecut=40 / intra_refresh=0 / rc_lookahead=50 / rc=2pass / mbtree=1 / bitrate=2525 / ratetol=1.0 / qcomp=0.60 / qpmin=0 / qpmax=69 / qpstep=4 / cplxblur=20.0 / qblur=0.5 / vbv_maxrate=14000 / vbv_bufsize=14000 / nal_hrd=none / filler=0 / ip_ratio=1.40 / aq=1:1.00
Language : English
Default : Yes
Forced : No
Audio #1
ID : 2
Format : AC-3
Format/Info : Audio Coding 3
Commercial name : Dolby Digital
Codec ID : A_AC3
Duration : 1 h 31 min
Bit rate mode : Constant
Bit rate : 192 kb/s
Channel(s) : 2 channels
Channel layout : L R
Sampling rate : 48.0 kHz
Frame rate : 31.250 FPS (1536 SPF)
Bit depth : 16 bits
Compression mode : Lossy
Stream size : 126 MiB (6%)
Title : МИР-ДРУЖБА
Language : Russian
Service kind : Complete Main
Default : Yes
Forced : No
Audio #2
ID : 3
Format : AC-3
Format/Info : Audio Coding 3
Commercial name : Dolby Digital
Codec ID : A_AC3
Duration : 1 h 31 min
Bit rate mode : Constant
Bit rate : 192 kb/s
Channel(s) : 2 channels
Channel layout : L R
Sampling rate : 48.0 kHz
Frame rate : 31.250 FPS (1536 SPF)
Bit depth : 16 bits
Compression mode : Lossy
Stream size : 126 MiB (6%)
Title : ГОРЧАКОВ
Language : Russian
Service kind : Complete Main
Default : No
Forced : No
Audio #3
ID : 4
Format : AC-3
Format/Info : Audio Coding 3
Commercial name : Dolby Digital
Codec ID : A_AC3
Duration : 1 h 31 min
Bit rate mode : Constant
Bit rate : 448 kb/s
Channel(s) : 6 channels
Channel layout : L R C LFE Ls Rs
Sampling rate : 48.0 kHz
Frame rate : 31.250 FPS (1536 SPF)
Bit depth : 16 bits
Compression mode : Lossy
Stream size : 293 MiB (13%)
Title : ENGLISH
Language : English
Service kind : Complete Main
Default : No
Forced : No
Text
ID : 5
Format : UTF-8
Codec ID : S_TEXT/UTF8
Codec ID/Info : UTF-8 Plain Text
Title : ENGLISH
Language : English
Default : No
Forced : No
Menu
00:00:00.000 : :Lie For A Living
00:07:17.000 : :Level With America
00:12:14.000 : :Little Blue Slippers
00:21:18.000 : :New Friends
00:27:20.000 : :No Nonsense Approach
00:33:56.000 : :Ad Men
00:40:46.000 : :Pitching Insanity
00:47:44.000 : :Stolen Spotlight
00:55:27.000 : :Say Something Honest
00:58:39.000 : :Vanity Plates
01:06:24.000 : :Hope And Doubt
01:13:14.000 : :Lonely Freedom
01:17:47.000 : :Crazy People Stay Here
01:22:13.000 : :Hello, Goodbye

Скриншоты

ps

to Evy
[cybertorrent.net].t5216.torrent 
Торрент: Зарегистрирован [ 2019-08-12 16:23 ] · C4CEC495BA2EF16F4A8C25E0727458FF4705CF22

Скачать .torrent

Скачать

11 KB

Статус: проверено
Скачан: 0 раз
Размер: 2,15 GB
terms.php
Профиль [ЛС]
Показать сообщения:    

Текущее время: 09-Дек 23:18

Часовой пояс: UTC ± 0



Вы не можете начинать темы
Вы не можете отвечать на сообщения
Вы не можете редактировать свои сообщения
Вы не можете удалять свои сообщения
Вы не можете голосовать в опросах
Вы не можете прикреплять файлы к сообщениям
Вы можете скачивать файлы