Статистика раздачи
Размер:  1,46 GB   |    Зарегистрирован:  7 месяцев 30 дней   |    Скачан:  0 раз

Полного источника не было: Никогда

 
     
 
 

Гость ®

Пол:
Не указан

Под листьями / Beneath the Leaves
Страна: США
Жанр: триллер
Год выпуска: 2019
Продолжительность: 01:30:23-Перевод: Любительский (многоголосый закадровый) | HDRezka Studio
Субтитры: нет
Оригинальная аудиодорожка: нет-Режиссер: Адам Марино / Adam Marino-В ролях: Даг Джонс, Мира Сорвино, Кристоффер Полаха, Мелора Уолтерс, Кристофер Мастерсон, Сер’Дариус Блэйн, Лили Бордан, Дон Суэйзи, Пол Сорвино, Кристофер Бакус-Описание: Психопат Джеймс Уитли похищает четырех мальчиков. Его попытка воссоединить приемных детей с покойными биологическими родителями заканчивается освобождением детей и его арестом. Через двадцать лет во время пожара в тюрьме Уитли сбегает и собирается закончить начатое. Детектива Ларсона, бывшую жертву Уитли, отстраняют от дела, теперь им занимается его коллега и любовница детектив Шотвелл. Гнев и шанс на искупление заставляют Ларсона преследовать психопата, из-за чего он попадает в ту же ловушку, из который выбрался в детстве.-Качество видео: WEB-DLRip
Формат видео: AVI
Видео: 704x288 (2.44:1), 23.976 fps, XviD build 73 ~2103 kbps avg, 0.43 bit/pixel
Аудио: 48 kHz, AC3 Dolby Digital, 2/0 (L,R) ch, ~192 kbps-[box]Сэмпл[/box]-

MediaInfo

Код:Формат : AVI
Формат/Информация : Audio Video Interleave
Размер файла : 1,46 Гбайт
Продолжительность : 1 ч. 30 м.
Общий поток : 2305 Кбит/сек
Программа кодирования : VirtualDubMod 1.5.10.3 | www.virtualdub-fr.org || (build 2550/release)
Библиотека кодирования : VirtualDubMod build 2550/release
Видео
Идентификатор : 0
Формат : MPEG-4 Visual
Профиль формата : Advanced Simple@L5
Настройки формата : BVOP1 / Custom Matrix
Параметр BVOP формата : 1
Параметр QPel формата : Нет
Параметр GMC формата : Без точки перехода
Параметр матрицы формата : Выборочная
Идентификатор кодека : XVID
Идентификатор кодека/Подсказка : XviD
Продолжительность : 1 ч. 30 м.
Битрейт : 2104 Кбит/сек
Ширина : 704 пикселя
Высота : 288 пикселей
Соотношение сторон : 2,40:1
Частота кадров : 23,976 (24000/1001) кадра/сек
Цветовое пространство : YUV
Субдискретизация насыщенности : 4:2:0
Битовая глубина : 8 бит
Тип развёртки : Прогрессивная
Метод сжатия : С потерями
Бит/(Пиксели*Кадры) : 0.433
Размер потока : 1,33 Гбайт (91%)
Библиотека кодирования : XviD 73
Аудио
Идентификатор : 1
Формат : AC-3
Формат/Информация : Audio Coding 3
Коммерческое название : Dolby Digital
Идентификатор кодека : 2000
Продолжительность : 1 ч. 30 м.
Вид битрейта : Постоянный
Битрейт : 192 Кбит/сек
Каналы : 2 канала
Channel layout : L R
Частота : 48,0 КГц
Частота кадров : 31,250 кадров/сек (1536 SPF)
Битовая глубина : 16 бит
Метод сжатия : С потерями
Размер потока : 124 Мбайт (8%)
Выравнивание : Разделение по промежуткам
Продолжительность промежутка : 42 мс. (1,00 видеокадр)
Время предзагрузки промежутка : 500 мс.
ServiceKind/String : Complete Main

Скриншоты


При появлении проф. озвучки, перезалью.
[cybertorrent.net].t518.torrent 
Торрент: Зарегистрирован [ 2019-03-18 13:08 ] · 8F5C04705F3F883FCBB26EAFA30A54756555F70C

Скачать .torrent

Скачать

15 KB

Статус: проверено
Скачан: 0 раз
Размер: 1,46 GB
terms.php
Показать сообщения:    

Текущее время: 17-Ноя 15:39

Часовой пояс: UTC ± 0



Вы не можете начинать темы
Вы не можете отвечать на сообщения
Вы не можете редактировать свои сообщения
Вы не можете удалять свои сообщения
Вы не можете голосовать в опросах
Вы не можете прикреплять файлы к сообщениям
Вы можете скачивать файлы