Статистика раздачи
Размер:  1,57 GB   |    Зарегистрирован:  8 месяцев 3 дня   |    Скачан:  0 раз

Полного источника не было: Никогда

 
     
 
 

Гость ®

Пол:
Не указан

Робо-пёс / Robo-dog- Страна: США
Жанр: приключения
Год выпуска: 2015
Продолжительность: 01:30:28
Перевод: Профессиональный (многоголосый закадровый)
Субтитры: нет
Оригинальная аудиодорожка: нет-Режиссер: Джейсон Мерфи / Jason Murphy-В ролях: Maк, Майкл Кэмпион, Патрик Малдун, Оливия д’Або, Уоллес Шоун, Кенни Бомонт, Джеймс Арнольд Тейлор, Энтони Робинетте, Тара МакДональд
Описание: Когда трагически погибает четвероногий друг Тайлера, отец мальчика создает говорящего робопса, оснащенного супербатареей. Пока робопес осваивается в нашем мире и перенимает повадки настоящих собак, шеф отца мистер Уиллис решает заиметь такую же супербатарею, и за робопсом начинается охота.-Сэмпл | Кинопоиск-Качество видео: WEB-DLRip-AVC
Формат видео: MKV
Видео: x264 (High@L4.1); 1152x648, Display aspect ratio 16:9, 24.000 fps, 2095 Kbps
Аудио: Русский: AC-3; 16 bits 48 Khz; 5.1ch 384 Kbps; CBR | MVO (iTunes)

MediaInfo

x264 log

avs [info]: 1152x648p 1:1 @ 24/1 fps (cfr)
avs [info]: color matrix: bt709
x264 [info]: using SAR=1/1
x264 [info]: using cpu capabilities: MMX2 SSE2Fast SSSE3 SSE4.2
x264 [info]: profile High, level 4.1, 4:2:0, 8-bit
x264 [info]: frame I:1271 Avg QP:16.80 size: 72086
x264 [info]: frame P:32495 Avg QP:18.99 size: 22292
x264 [info]: frame B:96505 Avg QP:21.06 size: 6272
x264 [info]: consecutive B-frames: 1.7% 3.5% 3.9% 73.4% 4.5% 8.1% 2.6% 0.4% 0.1% 0.0% 0.2% 1.3% 0.2%
x264 [info]: mb I I16..4: 7.9% 74.3% 17.8%
x264 [info]: mb P I16..4: 0.5% 7.0% 0.8% P16..4: 33.8% 34.7% 9.8% 1.2% 0.1% skip:12.2%
x264 [info]: mb B I16..4: 0.1% 0.8% 0.1% B16..8: 32.7% 15.1% 2.0% direct: 3.1% skip:46.1% L0:38.2% L1:48.6% BI:13.3%
x264 [info]: 8x8 transform intra:81.7% inter:60.8%
x264 [info]: direct mvs spatial:100.0% temporal:0.0%
x264 [info]: coded y,uvDC,uvAC intra: 88.2% 80.5% 53.4% inter: 14.7% 10.4% 4.1%
x264 [info]: i16 v,h,dc,p: 15% 13% 3% 69%
x264 [info]: i8 v,h,dc,ddl,ddr,vr,hd,vl,hu: 13% 8% 4% 9% 13% 14% 13% 13% 13%
x264 [info]: i4 v,h,dc,ddl,ddr,vr,hd,vl,hu: 15% 9% 4% 9% 15% 14% 13% 10% 11%
x264 [info]: i8c dc,h,v,p: 32% 28% 21% 19%
x264 [info]: Weighted P-Frames: Y:1.7% UV:0.8%
x264 [info]: ref P L0: 53.1% 9.3% 17.0% 5.4% 4.4% 3.1% 2.7% 1.4% 1.3% 1.1% 1.2% 0.0% 0.0%
x264 [info]: ref B L0: 80.2% 9.6% 4.2% 1.9% 1.3% 1.0% 0.8% 0.5% 0.3% 0.2%
x264 [info]: ref B L1: 96.0% 4.0%
x264 [info]: kb/s:2094.77
-General
Unique ID : 177294943703479782197270325028126335959 (0x8561C39C7F1EF697934F4F2B3F1223D7)
Complete name : Робо-пес.2015.mkv
Format : Matroska
Format version : Version 2
File size : 1.57 GiB
Duration : 1 h 30 min
Overall bit rate : 2 480 kb/s
Encoded date : UTC 2019-03-11 17:02:57
Writing application : mkvmerge v7.8.0 ('River Man') 32bit built on Mar 27 2015 16:18:02
Writing library : libebml v1.3.1 + libmatroska v1.4.2
Video
ID : 1
Format : AVC
Format/Info : Advanced Video Codec
Format profile : High@L4.1
Format settings : CABAC / 11 Ref Frames
Format settings, CABAC : Yes
Format settings, ReFrames : 11 frames
Codec ID : V_MPEG4/ISO/AVC
Duration : 1 h 30 min
Bit rate : 2 047 kb/s
Width : 1 152 pixels
Height : 648 pixels
Display aspect ratio : 16:9
Frame rate mode : Constant
Frame rate : 24.000 FPS
Color space : YUV
Chroma subsampling : 4:2:0
Bit depth : 8 bits
Scan type : Progressive
Bits/(Pixel*Frame) : 0.114
Stream size : 1.29 GiB (83%)
Title : Робо-пес / Robo-dog.2015
Writing library : x264 core 157 r2867+103 0d6443f t_mod_Custom_2 [8-bit@all X86]
Encoding settings : cabac=1 / ref=11 / deblock=1:-3:-2 / analyse=0x3:0x133 / me=umh / subme=11 / psy=1 / fade_compensate=0.00 / psy_rd=1.08:0.05 / mixed_ref=1 / me_range=32 / chroma_me=1 / trellis=2 / 8x8dct=1 / cqm=0 / deadzone=21,11 / fast_pskip=1 / chroma_qp_offset=-3 / threads=12 / lookahead_threads=3 / sliced_threads=0 / nr=0 / decimate=0 / interlaced=0 / bluray_compat=0 / constrained_intra=0 / fgo=0 / bframes=12 / b_pyramid=2 / b_adapt=2 / b_bias=0 / direct=3 / weightb=1 / open_gop=0 / weightp=2 / keyint=240 / keyint_min=24 / scenecut=40 / intra_refresh=0 / rc_lookahead=80 / rc=crf / mbtree=0 / crf=19.0000 / qcomp=0.65 / qpmin=0:0:0 / qpmax=69:69:69 / qpstep=4 / vbv_maxrate=62500 / vbv_bufsize=78125 / crf_max=0.0 / nal_hrd=none / filler=0 / ip_ratio=1.35 / pb_ratio=1.25 / aq=3:0.60 / aq-sensitivity=10.00 / aq-factor=1.00:1.00:1.00 / aq2=0 / aq3=0
Language : English
Default : Yes
Forced : No
Color range : Limited
Color primaries : BT.709
Transfer characteristics : BT.709
Matrix coefficients : BT.709
Audio
ID : 2
Format : AC-3
Format/Info : Audio Coding 3
Codec ID : A_AC3
Duration : 1 h 30 min
Bit rate mode : Constant
Bit rate : 384 kb/s
Channel(s) : 6 channels
Channel positions : Front: L C R, Side: L R, LFE
Sampling rate : 48.0 kHz
Frame rate : 31.250 FPS (1536 SPF)
Bit depth : 16 bits
Compression mode : Lossy
Stream size : 248 MiB (15%)
Title : AC-3; 16 bits 48 Khz; 5.1ch 384 Kbps; CBR | MVO (iTunes)
Language : Russian
Service kind : Complete Main
Default : Yes
Forced : No

Скриншоты

[cybertorrent.net].t495.torrent 
Торрент: Зарегистрирован [ 2019-03-18 13:08 ] · 7886025BC6D473A012D99420EB837B93F01A9767

Скачать .torrent

Скачать

16 KB

Статус: проверено
Скачан: 0 раз
Размер: 1,57 GB
terms.php
Показать сообщения:    

Текущее время: 22-Ноя 00:16

Часовой пояс: UTC ± 0



Вы не можете начинать темы
Вы не можете отвечать на сообщения
Вы не можете редактировать свои сообщения
Вы не можете удалять свои сообщения
Вы не можете голосовать в опросах
Вы не можете прикреплять файлы к сообщениям
Вы можете скачивать файлы