Статистика раздачи
Размер:  2,15 GB   |    Зарегистрирован:  8 месяцев 24 дня   |    Скачан:  0 раз

Полного источника не было: Никогда

 
     
 
 

serzh ®

Пол:
Не указан
Стаж:
8 месяцев 30 дней
Сообщений:
384

Космические яйца / Космобольцы / Spaceballs
Страна: США
Жанр: комедия
Год выпуска: 1987
Продолжительность: 01:36:13
Перевод 1: Авторский (одноголосый закадровый) Михаила Иванова
Перевод 2: Авторский (одноголосый закадровый) Алексея Михалёва
Субтитры: английские
Оригинальная аудиодорожка: английский
Режиссер: Мел Брукс /Mel Brooks/
В ролях: Мел Брукс /Mel Brooks/, Джон Кэнди /John Candy/, Билл Пуллман /Bill Pullman/, Дэфни Зунига /Daphne Zuniga/, Дик Ван Паттен /Dick Van Patten/, Рик Моранис /Rick Moranis/, Майкл Уинслоу /Michael Winslow/, Лоранс Бади /Laurence Badie/, Джордж Уайнер /George Wyner/, Джон Хёрт /John Hurt/...
Рецензия Михаила Иванова: Планета "Космические Яйца" пытается похитить атмосферу у соседней планеты Друидия. Смешная до истерики пародия на "Звездные войны", состоящая в основном из набора шуток, как словесных, так и визуальных. Есть шутки грубоватые, а есть чрезвычайно удачные. Metro Goldwyn Mayer.
Доп. информация: исходник от gmouse; Иванова оцифровал и подготовил karlll
исследовав раздачи этой комедии на треккере и комментарии, стало ясно что пришло время сделать сборку с ПОДЛИННЫМ ИВАНОВЫМ /НЕ Бигычем/ - небритым, правильной тональности, с расширенной частоткой /в сравнении с готовой дорогой на файлообменнике/
Качество видео: BDRip-AVC ~СЭМПЛ~
Формат видео: MKV
Видео: Video: MPEG4 Video (H264) 1152x624 23.98fps 2430Kbps
Аудио 1: Dolby AC3 48KHz 2ch 192Kbps - Иванов
Аудио 2: Dolby AC3 48KHz 6ch 384Kbps - Михалёв
Аудио 3: Dolby AC3 48KHz 2ch 192Kbps - Original Eng
Формат субтитров: softsub (SRT)

MediaInfo

Format : Matroska
Format version : Version 2
File size : 2.15 GiB
Duration : 1 h 36 min
Overall bit rate : 3 197 kb/s
Movie name : Spaceballs_1987_BDRip_KBC
Encoded date : UTC 2019-03-12 15:22:08
Writing application : mkvmerge v6.9.1 ('Blue Panther') 32bit built on Apr 18 2014 18:15:44
Writing library : libebml v1.3.0 + libmatroska v1.4.1
Video
ID : 1
Format : AVC
Format/Info : Advanced Video Codec
Format profile : High@L3.1
Format settings : CABAC / 7 Ref Frames
Format settings, CABAC : Yes
Format settings, RefFrames : 7 frames
Codec ID : V_MPEG4/ISO/AVC
Duration : 1 h 36 min
Bit rate : 2 430 kb/s
Width : 1 152 pixels
Height : 624 pixels
Display aspect ratio : 1.85:1
Frame rate mode : Constant
Frame rate : 23.976 (24000/1001) FPS
Color space : YUV
Chroma subsampling : 4:2:0
Bit depth : 8 bits
Scan type : Progressive
Bits/(Pixel*Frame) : 0.141
Stream size : 1.59 GiB (74%)
Title : Spaceballs_1987
Writing library : x264 core 152 r2851kMod ba24899
Encoding settings : cabac=1 / ref=7 / deblock=1:-1:-1 / analyse=0x3:0x113 / me=umh / subme=9 / psy=1 / fade_compensate=0.00 / psy_rd=1.00:0.20 / mixed_ref=1 / me_range=24 / chroma_me=1 / trellis=2 / 8x8dct=1 / cqm=0 / deadzone=21,11 / fast_pskip=0 / chroma_qp_offset=-3 / threads=6 / lookahead_threads=1 / sliced_threads=0 / nr=0 / decimate=0 / interlaced=0 / bluray_compat=0 / constrained_intra=0 / bframes=7 / b_pyramid=2 / b_adapt=2 / b_bias=0 / direct=3 / weightb=1 / open_gop=0 / weightp=2 / keyint=250 / keyint_min=23 / scenecut=40 / intra_refresh=0 / rc_lookahead=50 / rc=2pass / mbtree=1 / bitrate=2430 / ratetol=1.0 / qcomp=0.60 / qpmin=0 / qpmax=69 / qpstep=4 / cplxblur=20.0 / qblur=0.5 / vbv_maxrate=14000 / vbv_bufsize=14000 / nal_hrd=none / filler=0 / ip_ratio=1.40 / aq=1:1.00
Language : English
Default : Yes
Forced : No
Audio #1
ID : 2
Format : AC-3
Format/Info : Audio Coding 3
Commercial name : Dolby Digital
Codec ID : A_AC3
Duration : 1 h 36 min
Bit rate mode : Constant
Bit rate : 192 kb/s
Channel(s) : 2 channels
Channel layout : L R
Sampling rate : 48.0 kHz
Frame rate : 31.250 FPS (1536 SPF)
Bit depth : 16 bits
Compression mode : Lossy
Stream size : 132 MiB (6%)
Title : Иванов
Language : Russian
Service kind : Complete Main
Default : Yes
Forced : No
Audio #2
ID : 3
Format : AC-3
Format/Info : Audio Coding 3
Commercial name : Dolby Digital
Codec ID : A_AC3
Duration : 1 h 36 min
Bit rate mode : Constant
Bit rate : 384 kb/s
Channel(s) : 6 channels
Channel layout : L R C LFE Ls Rs
Sampling rate : 48.0 kHz
Frame rate : 31.250 FPS (1536 SPF)
Bit depth : 16 bits
Compression mode : Lossy
Stream size : 264 MiB (12%)
Title : Михалёв
Language : Russian
Service kind : Complete Main
Default : No
Forced : No
Audio #3
ID : 4
Format : AC-3
Format/Info : Audio Coding 3
Commercial name : Dolby Digital
Codec ID : A_AC3
Duration : 1 h 36 min
Bit rate mode : Constant
Bit rate : 192 kb/s
Channel(s) : 2 channels
Channel layout : L R
Sampling rate : 48.0 kHz
Frame rate : 31.250 FPS (1536 SPF)
Bit depth : 16 bits
Compression mode : Lossy
Stream size : 132 MiB (6%)
Title : english
Language : English
Service kind : Complete Main
Default : No
Forced : No
Text
ID : 5
Format : UTF-8
Codec ID : S_TEXT/UTF8
Codec ID/Info : UTF-8 Plain Text
Title : english
Language : English
Default : No
Forced : No

Скриншоты

[cybertorrent.net].t491.torrent 
Торрент: Зарегистрирован [ 2019-03-18 13:08 ] · AD50E75F874F341DCFA89CF8CC65471495414855

Скачать .torrent

Скачать

11 KB

Статус: проверено
Скачан: 0 раз
Размер: 2,15 GB
terms.php
Профиль [ЛС]
Показать сообщения:    

Текущее время: 12-Дек 04:59

Часовой пояс: UTC ± 0



Вы не можете начинать темы
Вы не можете отвечать на сообщения
Вы не можете редактировать свои сообщения
Вы не можете удалять свои сообщения
Вы не можете голосовать в опросах
Вы не можете прикреплять файлы к сообщениям
Вы можете скачивать файлы