Статистика раздачи
Размер:  743 MB   |    Зарегистрирован:  8 месяцев 3 дня   |    Скачан:  0 раз

Полного источника не было: Никогда

 
     
 
 

Гость ®

Пол:
Не указан

Отрыв
Страна: Россия
Жанр: триллер
Год выпуска: 2018
Продолжительность: 01:21:32
Субтитры: нет-Режиссер:
Тигран Саакян-В ролях:
Ирина Антоненко, Андрей Назимов, Денис Косяков, Ингрид Олеринская, Михаил Филиппов, Сергей Тодоров, Владимир Гусев, Елена Ветрова, Виктория Пятакина, Ангелина Пиковская-Описание:
Компания друзей поднимается в горы, чтобы незабываемо встретить новогоднюю ночь на вершине горы. Ребята уже предвкушают, как под бой курантов и взрывы салютов они весело съедут вниз. Но приключение оборачивается настоящим кошмаром, когда в самый разгар праздника хлипкий вагончик, привёзший их ввысь, застревает над пропастью.- -Качество видео: WEB-DLRip
Формат видео: AVI
Видео: 720x288 (2.50:1), 25 fps, XviD build 73 ~1135 kbps avg, 0.22 bit/pixel
Аудио: 48 kHz, MPEG Layer 3, 2 ch, ~128.00 kbps avg-[box]Сэмпл[/box]-

MediaInfo

Код:Формат : AVI
Формат/Информация : Audio Video Interleave
Размер файла : 743 Мбайт
Продолжительность : 1 ч. 21 м.
Общий поток : 1274 Кбит/сек
Программа кодирования : VirtualDubMod 1.5.10.3 | www.virtualdub-fr.org || (build 2550/release)
Библиотека кодирования : VirtualDubMod build 2550/release
Видео
Идентификатор : 0
Формат : MPEG-4 Visual
Профиль формата : Advanced Simple@L5
Настройки формата : BVOP1 / Custom Matrix
Параметр BVOP формата : 1
Параметр QPel формата : Нет
Параметр GMC формата : Без точки перехода
Параметр матрицы формата : Выборочная
Идентификатор кодека : XVID
Идентификатор кодека/Подсказка : XviD
Продолжительность : 1 ч. 21 м.
Битрейт : 1136 Кбит/сек
Ширина : 720 пикселей
Высота : 288 пикселей
Соотношение сторон : 2,500
Частота кадров : 25,000 кадров/сек
Цветовое пространство : YUV
Субдискретизация насыщенности : 4:2:0
Битовая глубина : 8 бит
Тип развёртки : Прогрессивная
Метод сжатия : С потерями
Бит/(Пиксели*Кадры) : 0.219
Размер потока : 662 Мбайт (89%)
Библиотека кодирования : XviD 73
Аудио
Идентификатор : 1
Формат : MPEG Audio
Версия формата : Version 1
Профиль формата : Layer 3
Идентификатор кодека : 55
Идентификатор кодека/Подсказка : MP3
Продолжительность : 1 ч. 21 м.
Вид битрейта : Постоянный
Битрейт : 128 Кбит/сек
Каналы : 2 канала
Частота : 48,0 КГц
Частота кадров : 41,667 кадра/сек (1152 SPF)
Метод сжатия : С потерями
Размер потока : 74,7 Мбайт (10%)
Выравнивание : Соединение по промежуткам
Продолжительность промежутка : 40 мс. (1,00 видеокадр)
Время предзагрузки промежутка : 504 мс.
Библиотека кодирования : LAME3.99r
Настройки программы : -m s -V 4 -q 2 -lowpass 17 -b 128

Скриншоты


[cybertorrent.net].t487.torrent 
Торрент: Зарегистрирован [ 2019-03-18 13:08 ] · 375D4C1DB669942B6F434F1B80A5765977575D6F

Скачать .torrent

Скачать

15 KB

Статус: проверено
Скачан: 0 раз
Размер: 743 MB
terms.php
Показать сообщения:    

Текущее время: 22-Ноя 05:26

Часовой пояс: UTC ± 0



Вы не можете начинать темы
Вы не можете отвечать на сообщения
Вы не можете редактировать свои сообщения
Вы не можете удалять свои сообщения
Вы не можете голосовать в опросах
Вы не можете прикреплять файлы к сообщениям
Вы можете скачивать файлы