Статистика раздачи
Размер:  1,46 GB   |    Зарегистрирован:  6 месяцев 28 дней   |    Скачан:  0 раз

Полного источника не было: Никогда

   
 

солнышко ®

Пол:
Не указан
Стаж:
7 месяцев 3 дня
Сообщений:
565

Багровая мята / Peppermint
Страна: США, Гонконг
Жанр: боевик, криминал, триллер
Год выпуска: 2018
Продолжительность: 01:41:37

Перевод: Авторский (одноголосый закадровый) Юрий Немахов
Субтитры: нет
Режиссер: Пьер Морел / Pierre Morel
В ролях: Дженнифер Гарнер, Джон Галлахер мл., Джон Ортис, Хуан Раба, Энни Айлонзех, Джефф Хефнер, Кэйли Флеминг, Эдди Шин
Описание: Безупречную семью разрушила очередь свинца, выпущенного из ствола наркодиллеров. В тот вечер остановилось два сердца, и одно было разбито вдребезги. Чтобы избежать сурового наказания, сотрудники полиции предложили женщине забыть гибель мужа и любимой дочери и замолчать в суде, приняв солидную денежную компенсацию. Надежда на справедливость, заставляла ее следовать буквам закона. Но сделав все возможное, она столкнулась с коррупцией в высших кругах и безнаказанностью настоящих преступников. Потеряв все, что у нее было, она решает двигаться до конца, но постараться отомстить всему криминальному миру, который был замешан в уничтожении ее счастья. Затаившись, на пять долгих лет, она не тратила время зря и обучалась. Совершенствуя физическую подготовку, запаслась хорошими видами оружия и была готова вернуться. Действуя расчетливо и аккуратно, она убирала ублюдков, заливая землю кровью, пока под ногами не была багровая мята. Месть приносит ей удовлетворение и успокоение, а окружающему населению веру в правосудие. Она популярна в социальных сетях как народный мститель, но честные полицейские, обязаны ее найти и остановить....

Сэмпл: http://multi-up.com/1226164
Качество видео: BDRip (Исходник Peppermint.2018.BDREMUX.1080p.seleZen.mkv)
Формат видео: AVI
Видео: XviD 73, 720x304, (2,35:1), 23,976 fps, 1660 Кбит/с, 8 бит, 0.31 bit/pixel
Аудио: Русский (АС3, 6 ch (Front: L C R, Side: L R, LFE), 48,0 KHz, 384 Kbps)

MediaInfo

Общее
Полное имя : D:\Фильмы на трекер\Багровая мята (боевик, криминал, триллер 2018 год).avi
Формат : AVI
Формат/Информация : Audio Video Interleave
Размер файла : 1,46 Гбайт
Продолжительность : 1 ч. 42 м.
Общий поток : 2053 Кбит/сек
Программа кодирования : VirtualDubMod 1.5.10.2 (build 2540/release)
Библиотека кодирования : VirtualDubMod build 2540/release
Видео
Идентификатор : 0
Формат : MPEG-4 Visual
Профиль формата : Advanced Simple@L5
Параметр BVOP формата : 2
Параметр QPel формата : Нет
Параметр GMC формата : Без точки перехода
Параметр матрицы формата : Выборочная
Идентификатор кодека : XVID
Идентификатор кодека/Подсказка : XviD
Продолжительность : 1 ч. 42 м.
Битрейт : 1660 Кбит/сек
Ширина : 720 пикселей
Высота : 304 пикселя
Соотношение сторон : 2,35:1
Частота кадров : 23,976 (23976/1000) кадра/сек
Цветовое пространство : YUV
Субдискретизация насыщенности : 4:2:0
Битовая глубина : 8 бит
Тип развёртки : Прогрессивная
Метод сжатия : С потерями
Бит/(Пиксели*Кадры) : 0.316
Размер потока : 1,18 Гбайт (81%)
Библиотека кодирования : XviD 73
Аудио
Идентификатор : 1
Формат : AC-3
Формат/Информация : Audio Coding 3
Расширение режима : CM (complete main)
Параметр Endianness формата : Big
Идентификатор кодека : 2000
Продолжительность : 1 ч. 42 м.
Вид битрейта : Постоянный
Битрейт : 384 Кбит/сек
Каналы : 6 каналов
Расположение каналов : Front: L C R, Side: L R, LFE
Частота : 48,0 КГц
Частота кадров : 31,250 кадров/сек (1536 spf)
Метод сжатия : С потерями
Размер потока : 280 Мбайт (19%)
Выравнивание : Разделение по промежуткам
Продолжительность промежутка : 42 мс. (1,00 видеокадр)
Время предзагрузки промежутка : 500 мс.

Скриншот c названием фильма

Скриншоты

[cybertorrent.net].t485.torrent 
Торрент: Зарегистрирован [ 2019-03-18 13:08 ] · B9467C976D8CBF4615098EE366C24FC633718E1E

Скачать .torrent

Скачать

15 KB

Статус: проверено
Скачан: 0 раз
Размер: 1,46 GB
terms.php
Профиль ЛС
Показать сообщения:    

Текущее время: 15-Окт 23:58

Часовой пояс: UTC ± 0



Вы не можете начинать темы
Вы не можете отвечать на сообщения
Вы не можете редактировать свои сообщения
Вы не можете удалять свои сообщения
Вы не можете голосовать в опросах
Вы не можете прикреплять файлы к сообщениям
Вы можете скачивать файлы