Статистика раздачи
Размер:  3,15 GB   |    Зарегистрирован:  8 месяцев 2 дня   |    Скачан:  0 раз

Полного источника не было: Никогда

 
     
 
 

Гость ®

Пол:
Не указан

Фантом
Год выпуска: 2019
Производство: Россия, Украина, Film.ua
Жанр: детектив, триллер
Продолжительность: ~00:49:00 серия
Субтитры: нет
Режиссёр: Сергей Сенцов
В ролях: Юрий Чурсин, Павел Майков, Тимофей Трибунцев, Михаил Кремер, Ян Гахарманов, Михаил Тарабукин, Лиза Толубеева, Зоя Бербер, Полина Сидихина, Сергей Епишев, Александр Галибин, Виктор Проскурин
Описание: В клинике, где проходят реабилитацию люди с психическими расстройствами, приходит в чувства утративший память мужчина. Даже доктора не имеют малейшего представления о прошлом данного пациента. Они знают только имя. Иван пребывает в режимном учреждении на протяжении последнего года. Весь этот период его пичкают сильнейшими препаратами . Единственный, кому известна истина – это директор, но он не успел поделиться правдой. Руководитель лечебницы погибает при таинственных обстоятельствах. Во время следственных мероприятий мужчина узнает одного из оперативников. Между ним и Станиславом складываются сложные взаимоотношения, но к делу подключается Артур – сосед по больничной палате. Действия своеобразного тандема позволяют установить личность убийцы. Неожиданно для Вани к нему в гости наведывается супруга в компании лучшего друга. Они пытаются объяснить, что его настоящее имя - Павел. Ранее он был весьма успешным воротилой в сфере фармацевтического бизнеса. Но недоброжелатели решили избавиться от конкурента и подстроили его исчезновение. Не менее интересной оказывается жизнь Артура, ведь его истинная личина сильно отличается от выбранного образа.

Реклама: Нет.
Кино-театр
Все раздачи сериала
Sample
Качество: WEBRip - Files-x
Формат: AVI
Видео кодек: XviD
Аудио кодек: AC3
Видео: 720x400 (1.80:1), 25 fps, XviD ~1600 kbps avg, 0.222 bit/pixel
Аудио: 48.0 kHz, AC3 Dolby Digital, 2/0 (L,R) ch, ~ 192 kbps

Внимание! Раздача ведётся путём добавления новых серий

Раздача ведётся путём добавления новых серий, при каждом добавлении создаётся новый торрент. Чтобы начать докачку новой серии, пользователям необходимо сделать следующее:
- Остановить скачивание.
- Удалить старый торрент у себя из клиента (старые серии удалять не надо).
- Скачать новый торрент и запустить его у себя в клиенте вместо старого, при этом указать клиенту путь в старую папку куда и должно происходить скачивание новых серий.
Ваш клиент при этом должен произвести хеширование (проверку) старой папки (если не производит сам - помогите ему сделать это), и будет докачивать только те серии которых у вас ещё нет. Старые серии при этом не удаляются, а продолжают раздаваться!
Если вы уже удалили старые серии, то предотвратить повторную закачку старых серий можно, отжав галочку в соответствующих местах при запуске нового торрента. По возможности, желательно не удалять старые серии как можно дольше, чтобы релизер не столько продолжал раздавать старые серии, а смог сконцентрироваться на новых.

MI

General
Complete name : D:\Фантом.(2019).WEBRip.Files-x\01.Фантом.(2019).WEBRip.Files-x.avi
Format : AVI
Format/Info : Audio Video Interleave
File size : 643 MiB
Duration : 49 min 54 s
Overall bit rate : 1 801 kb/s
Writing application : VirtualDubMod 1.5.10.3 | www.virtualdub-fr.org || (build 2550/release)
Writing library : VirtualDubMod build 2550/release
Video
ID : 0
Format : MPEG-4 Visual
Format profile : Advanced Simple@L5
Format settings : BVOP1 / Custom Matrix
Format settings, BVOP : 1
Format settings, QPel : No
Format settings, GMC : No warppoints
Format settings, Matrix : Custom
Codec ID : XVID
Codec ID/Hint : XviD
Duration : 49 min 54 s
Bit rate : 1 599 kb/s
Width : 720 pixels
Height : 400 pixels
Display aspect ratio : 16:9
Frame rate : 25.000 FPS
Color space : YUV
Chroma subsampling : 4:2:0
Bit depth : 8 bits
Scan type : Progressive
Compression mode : Lossy
Bits/(Pixel*Frame) : 0.222
Stream size : 571 MiB (89%)
Writing library : XviD 73
Audio
ID : 1
Format : AC-3
Format/Info : Audio Coding 3
Codec ID : 2000
Duration : 49 min 54 s
Bit rate mode : Constant
Bit rate : 192 kb/s
Channel(s) : 2 channels
Channel positions : Front: L R
Sampling rate : 48.0 kHz
Frame rate : 31.250 FPS (1536 SPF)
Bit depth : 16 bits
Compression mode : Lossy
Stream size : 68.5 MiB (11%)
Alignment : Split accross interleaves
Interleave, duration : 40 ms (1.00 video frame)
Interleave, preload duratio : 500 ms
Service kind : Complete Main

Скриншоты


[cybertorrent.net].t482.torrent 
Торрент: Зарегистрирован [ 2019-03-18 13:08 ] · A7757271793699055D51AF81C75EAA5BFCC3393C

Скачать .torrent

Скачать

17 KB

Статус: проверено
Скачан: 0 раз
Размер: 3,15 GB
terms.php
Показать сообщения:    

Текущее время: 21-Ноя 09:24

Часовой пояс: UTC ± 0



Вы не можете начинать темы
Вы не можете отвечать на сообщения
Вы не можете редактировать свои сообщения
Вы не можете удалять свои сообщения
Вы не можете голосовать в опросах
Вы не можете прикреплять файлы к сообщениям
Вы можете скачивать файлы