Статистика раздачи
Размер:  2,07 GB   |    Зарегистрирован:  6 месяцев 28 дней   |    Скачан:  0 раз

Полного источника не было: Никогда

   
 

serzh ®

Пол:
Не указан
Стаж:
7 месяцев 3 дня
Сообщений:
384

Иштар / Ishtar
Режиссёрская версия / Director's Cut
Страна: США
Жанр: комедия, приключения
Год выпуска: 1987
Продолжительность: 01:44:57
Перевод: Авторский (одноголосый закадровый) Алексеев
Перевод 2: Авторский (одноголосый закадровый) Горчаков
Субтитры: нет
Оригинальная аудиодорожка: английский
Режиссер: Илэйн Мэй / Elaine May
В ролях: Уоррен Битти, Дастин Хоффман, Изабель Аджани, Чарльз Гродин, Джек Уэстон, Тесс Харпер, Кэрол Кейн, Фиджад Хагиб
Описание: Двое неудачливых, туповатых песенников, преимущественно лишенных таланта, слуха, голоса и музыкального вкуса (Уоррен Битти и Дастин Хоффман), уезжают из Нью-Йорка, где никому даром не нужны, исполнять свои шедевры в североафриканское Марокко. Однако вместо покорения музыкального Олимпа, втягиваются в международные геополитические игры США и СССР, связанные с борьбой за влияние на близлежащее государство Иштар и поиском некой древней карты со священным пророчеством, которое может взорвать Ближний Восток. Представительницу местного подполья, красавицу-коммунистку, полную возвышенных идеалов, играет Изабель Аджани.
Доп. информация: Исходник видео http://cybertorrent.ru/forum/viewtopic.php?t=4511559.
Режиссерская версия отличается от ДВД тем, что сильно порезана ножницами небольшими фрагментами по несколько секунд.
Благодарю m.mamichev и Василий С за предоставленный чистый голос Антона Алексеева (именно на режиссерскую версию). Дорожка получена путём наложения на центральный канал оригинальной. Впервые на трекере.
Сэмпл: https://yadi.sk/i/UL-xmMOL6x5Onw
Качество видео: BDRip-AVC
Формат видео: MKV
Видео: AVC, 960x520 (1.85:1), ~1735 kbps, 23.976 fps
Аудио: AC3, 48 khz, 5.1, 448 kbps - Антон Алексеев
Аудио 2: AC3, 48 khz, 2.0, 192 kbps - Василий Горчаков
Аудио 3: AC3, 48 khz, 5.1, 448 kbps - english

MediaInfo

Общее
Уникальный идентификатор : 82790713000449139538140071029515262686 (0x3E48E94CD2A56E57F4FAE4093F9C9ADE)
Полное имя : D:\Torrents\Ishtar [BDRip-AVC 1987].mkv
Формат : Matroska
Версия формата : Version 4
Размер файла : 2,07 Гбайт
Продолжительность : 1 ч. 44 м.
Общий поток : 2825 Кбит/сек
Дата кодирования : UTC 2019-03-10 13:32:58
Программа кодирования : mkvmerge v19.0.0 ('Brave Captain') 32-bit
Библиотека кодирования : libebml v1.3.5 + libmatroska v1.4.8
Видео
Идентификатор : 1
Формат : AVC
Формат/Информация : Advanced Video Codec
Профиль формата : High@L4.1
Настройки формата : CABAC / 16 Ref Frames
Параметр CABAC формата : Да
Параметр RefFrames формата : 16 кадров
Идентификатор кодека : V_MPEG4/ISO/AVC
Продолжительность : 1 ч. 44 м.
Битрейт : 1735 Кбит/сек
Ширина : 960 пикселей
Высота : 520 пикселей
Соотношение сторон : 1,85:1
Режим частоты кадров : Постоянный
Частота кадров : 23,976 (24000/1001) кадра/сек
Цветовое пространство : YUV
Субдискретизация насыщенности : 4:2:0
Битовая глубина : 8 бит
Тип развёртки : Прогрессивная
Бит/(Пиксели*Кадры) : 0.145
Размер потока : 1,27 Гбайт (61%)
Библиотека кодирования : x264 core 148 r2597M e86f3a1
Настройки программы : cabac=1 / ref=16 / deblock=1:-1:-1 / analyse=0x3:0x133 / me=umh / subme=10 / psy=1 / psy_rd=1.00:0.00 / mixed_ref=1 / me_range=24 / chroma_me=1 / trellis=2 / 8x8dct=1 / cqm=0 / deadzone=21,11 / fast_pskip=1 / chroma_qp_offset=-2 / threads=4 / lookahead_threads=1 / sliced_threads=0 / nr=0 / decimate=1 / interlaced=0 / bluray_compat=0 / constrained_intra=0 / bframes=8 / b_pyramid=2 / b_adapt=2 / b_bias=0 / direct=3 / weightb=1 / open_gop=0 / weightp=2 / keyint=230 / keyint_min=23 / scenecut=40 / intra_refresh=0 / rc_lookahead=60 / rc=crf / mbtree=1 / crf=20.5 / qcomp=0.60 / qpmin=0 / qpmax=69 / qpstep=4 / ip_ratio=1.40 / aq=1:1.00
Default : Да
Forced : Нет
Аудио #1
Идентификатор : 2
Формат : AC-3
Формат/Информация : Audio Coding 3
Коммерческое название : Dolby Digital
Идентификатор кодека : A_AC3
Продолжительность : 1 ч. 44 м.
Вид битрейта : Постоянный
Битрейт : 448 Кбит/сек
Каналы : 6 каналов
Channel layout : L R C LFE Ls Rs
Частота : 48,0 КГц
Частота кадров : 31,250 кадров/сек (1536 SPF)
Битовая глубина : 16 бит
Метод сжатия : С потерями
Размер потока : 336 Мбайт (16%)
Заголовок : Alekseev
Язык : Russian
ServiceKind/String : Complete Main
Default : Да
Forced : Нет
Аудио #2
Идентификатор : 3
Формат : AC-3
Формат/Информация : Audio Coding 3
Коммерческое название : Dolby Digital
Идентификатор кодека : A_AC3
Продолжительность : 1 ч. 44 м.
Вид битрейта : Постоянный
Битрейт : 192 Кбит/сек
Каналы : 2 канала
Channel layout : L R
Частота : 48,0 КГц
Частота кадров : 31,250 кадров/сек (1536 SPF)
Битовая глубина : 16 бит
Метод сжатия : С потерями
Размер потока : 144 Мбайт (7%)
Заголовок : Gorchakov
Язык : Russian
ServiceKind/String : Complete Main
Default : Нет
Forced : Нет
Аудио #3
Идентификатор : 4
Формат : AC-3
Формат/Информация : Audio Coding 3
Коммерческое название : Dolby Digital
Идентификатор кодека : A_AC3
Продолжительность : 1 ч. 44 м.
Вид битрейта : Постоянный
Битрейт : 448 Кбит/сек
Каналы : 6 каналов
Channel layout : L R C LFE Ls Rs
Частота : 48,0 КГц
Частота кадров : 31,250 кадров/сек (1536 SPF)
Битовая глубина : 16 бит
Метод сжатия : С потерями
Размер потока : 336 Мбайт (16%)
Язык : English
ServiceKind/String : Complete Main
Default : Нет
Forced : Нет

Скриншот c названием фильма

Скриншоты

[cybertorrent.net].t450.torrent 
Торрент: Зарегистрирован [ 2019-03-18 13:08 ] · E4362DD7DA8F24E645BDDB30DBEAF0DB9BBCA77B

Скачать .torrent

Скачать

11 KB

Статус: проверено
Скачан: 0 раз
Размер: 2,07 GB
terms.php
Профиль ЛС
Показать сообщения:    

Текущее время: 15-Окт 20:56

Часовой пояс: UTC ± 0



Вы не можете начинать темы
Вы не можете отвечать на сообщения
Вы не можете редактировать свои сообщения
Вы не можете удалять свои сообщения
Вы не можете голосовать в опросах
Вы не можете прикреплять файлы к сообщениям
Вы можете скачивать файлы