Статистика раздачи
Размер:  13,84 GB   |    Зарегистрирован:  7 месяцев 29 дней   |    Скачан:  0 раз

Полного источника не было: Никогда

 
     
 
 

Гость ®

Пол:
Не указан

Анатомия убийства
Год выпуска: 2019
Производство: Мэджик Фэктори, Маурис Филм
Жанр: детектив
Продолжительность: ~00:48:00 серия
Субтитры: нет
Режиссёр: Артур Румынский
В ролях: Дарья Семёнова, Андрей Чернышов, Даниил Спиваковский, Ольга Медынич, Евгений Сидихин, Лариса Удовиченко, Галина Польских, Галина Петрова, Екатерина Волкова, Сергей Чонишвили, Екатерина Соломатина, Дмитрий Мазуров, Александр Никитин , Елена Полякова, Максим Битюков, Григорий Быстрицкий, Иван Косичкин, Дмитрий Фрид, Юлия Максимова, Владислав Павлов, Алексей Рыжков, Мария Куликова, Алексей Князев, Вероника Корниенко, Галина Кашковская, Иван Агапов, Владимир Стеклов, Любовь Матюшина, Дмитрий Бедерин, Юлия Франц, Иван Мамонов, Алексей Войтюк, Вадим Медведев , Ирина Бразговка, Михаил Васьков, Алёна Спивак, Евгений Токарев
Описание: В одночасье рушится привычная жизнь блестящего патологоанатома Евгении Волковой. Очередное вскрытие ставит Евгению перед дилеммой: стать соучастницей преступления или отправить близкого человека за решётку. Евгения выбирает третий вариант: бегство. Женя устраивается сиделкой в столичную семью, но проработать долго на новом месте ей не удается. Случайное знакомство с загадочным программистом Сергеем Карским по-настоящему меняет жизнь Евгении. Теперь им предстоит вместе распутать не одно таинственное преступление: запутанная история убийства генерала, мистические явления в доме знаменитой актрисы, история мести, тайна особняка XIX века, похищенная картина…

Реклама: Нет.
Кинопоиск
Все раздачи сериала
Sample
Качество: WEBRip 1080p - Getty
Формат: MKV
Видео кодек: H.264
Аудио кодек: AC3
Видео: MPEG4 AVC Video, H264, 16:9, 1920x1080, 25 fps, ~5100 kbps, 0.099 bit/pixel
Аудио: AC3 Dolby Digital, 48.0 kHz, 2/0 (L,R) ch, 192 kbps

Список и содержание серий

Фильм 1. Скелет в шкафу (1-4 серии)
Евгения устраивается сиделкой в богатый дом Самсоновых в Подмосковье. Однако ей не удалось начать новую спокойную жизнь. В доме витает тревога. Предыдущая сиделка, Раиса, умерла при странных обстоятельствах. Каждый из обитателей дома что-то скрывает. Профессия приучила Евгению к дотошности, вот и теперь она начинает настойчиво и методично искать правду. Также Евгении помогает сосед семейства Карский.
Фильм 2. Убийственная справедливость(5-8 серии)
Актриса просит Евгению Волкову разобраться со странными явлениями, которые происходят в доме — ей кажется, что кто-то планомерно сводит ее с ума. Евгения и Карский пытаются распутать клубок интриг, в центре которых оказалась актриса.
Фильм 3. Насмешка судьбы(9-10 серии)
Евгения продолжает работать сиделкой, но в этой серии предстает как племянница пенсионерки Ольги Колосовой. В доме Колосовой нашли труп неизвестной женщины.
Фильм 4. Ужин на шестерых(11-12 серии)
Евгения вместе с Карским расследуют неожиданную смерть нового соседа, известного галериста и коллекционера.

Внимание! Раздача ведётся путём добавления новых серий

Раздача ведётся путём добавления новых серий, при каждом добавлении создаётся новый торрент. Чтобы начать докачку новой серии, пользователям необходимо сделать следующее:
- Остановить скачивание.
- Удалить старый торрент у себя из клиента (старые серии удалять не надо).
- Скачать новый торрент и запустить его у себя в клиенте вместо старого, при этом указать клиенту путь в старую папку куда и должно происходить скачивание новых серий.
Ваш клиент при этом должен произвести хеширование (проверку) старой папки (если не производит сам - помогите ему сделать это), и будет докачивать только те серии которых у вас ещё нет. Старые серии при этом не удаляются, а продолжают раздаваться!
Если вы уже удалили старые серии, то предотвратить повторную закачку старых серий можно, отжав галочку в соответствующих местах при запуске нового торрента. По возможности, желательно не удалять старые серии как можно дольше, чтобы релизер не столько продолжал раздавать старые серии, а смог сконцентрироваться на новых.

MI

General
Unique ID : 176520713752863428861520522771960697731 (0x84CCA720A9573A4C9C34B675B60C1383)
Complete name : D:\Anatomiya.ubijstva.2018.WEB-DL.(1080p).Getty\Anatomiya.ubijstva.e01.2018.WEB-DL.(1080p).Getty.mkv
Format : Matroska
Format version : Version 4 / Version 2
File size : 1.80 GiB
Duration : 48 min 40 s
Overall bit rate : 5 300 kb/s
Movie name : Anatomiya.ubijstva.e01.2018.WEB-DL.(1080p).Getty
Encoded date : UTC 2019-03-09 21:19:44
Writing application : mkvmerge v7.8.0 ('River Man') 32bit built on Mar 27 2015 16:18:02
Writing library : libebml v1.3.1 + libmatroska v1.4.2
Video
ID : 1
Format : AVC
Format/Info : Advanced Video Codec
Format profile : High@L4
Format settings : CABAC / 4 Ref Frames
Format settings, CABAC : Yes
Format settings, ReFrames : 4 frames
Codec ID : V_MPEG4/ISO/AVC
Duration : 48 min 40 s
Bit rate : 5 106 kb/s
Width : 1 920 pixels
Height : 1 080 pixels
Display aspect ratio : 16:9
Frame rate mode : Constant
Frame rate : 25.000 FPS
Color space : YUV
Chroma subsampling : 4:2:0
Bit depth : 8 bits
Scan type : Progressive
Bits/(Pixel*Frame) : 0.099
Stream size : 1.74 GiB (96%)
Default : Yes
Forced : No
Audio
ID : 2
Format : AC-3
Format/Info : Audio Coding 3
Codec ID : A_AC3
Duration : 48 min 40 s
Bit rate mode : Constant
Bit rate : 192 kb/s
Channel(s) : 2 channels
Channel positions : Front: L R
Sampling rate : 48.0 kHz
Frame rate : 31.250 FPS (1536 SPF)
Bit depth : 16 bits
Compression mode : Lossy
Stream size : 66.8 MiB (4%)
Service kind : Complete Main
Default : Yes
Forced : No

Скриншоты


[cybertorrent.net].t445.torrent 
Торрент: Зарегистрирован [ 2019-03-18 13:08 ] · 33A8DBA4FAC51109BE86709924204920E495E6E8

Скачать .torrent

Скачать

70 KB

Статус: проверено
Скачан: 0 раз
Размер: 13,84 GB
terms.php
Показать сообщения:    

Текущее время: 16-Ноя 21:49

Часовой пояс: UTC ± 0



Вы не можете начинать темы
Вы не можете отвечать на сообщения
Вы не можете редактировать свои сообщения
Вы не можете удалять свои сообщения
Вы не можете голосовать в опросах
Вы не можете прикреплять файлы к сообщениям
Вы можете скачивать файлы