Статистика раздачи
Размер:  745 MB   |    Зарегистрирован:  8 месяцев 21 день   |    Скачан:  0 раз

Полного источника не было: Никогда

 
     
 
 

Гость ®

Пол:
Не указан

Исчезнувшая империя
Год выпуска: 2008
Жанр: драма
Продолжительность: 01:48:44.736 (156437 frames)
Субтитры: нет
Режиссер: Карен Шахназаров
В ролях: Янина Калганова, Иван Купреенко, Александр Ляпин, Лидия Милюзина, Егор Барановский, Армен Джигарханян, Владимир Ильин, Артем Лысков, Велимир Русаков, Ольга Тумайкина, Ольга Ковалева, Сергей Филиппов
Описание: Действие фильма разворачивается в 70-е годы прошлого века в Москве. В центре сюжета классический любовный треугольник - два парня и девушка. Они учатся в одном институте, ссорятся, мирятся, испытывают первые разочарования, одерживают первые победы, даже не догадываясь о том, что уже очень скоро страна, в которой они родились и живут, исчезнет со всех карт мира.
Качество: BDRip
Формат: AVI
Видео кодек: XviD
Аудио кодек: МР3
Видео: 640x384 (1.67:1), 23.976 fps, XviD build 73 ~820 kbps avg, 0.14 bit/pixel
Аудио: 48 kHz, MPEG Layer 3, 2 ch, ~128.00 kbps avg

Медиаинфо

General
Complete name : E:\004 Мои раздачи\Исчезнувшая империя 745\ischeznuvshaya_imperiya_745_by_bm11.avi
Format : AVI
Format/Info : Audio Video Interleave
File size : 745 MiB
Duration : 1h 48mn
Overall bit rate : 958 Kbps
Director : bm11
Writing application : VirtualDubMod 1.5.10.3 | www.virtualdub-fr.org || (build 2550/release)
Video
ID : 0
Format : MPEG-4 Visual
Format profile : Advanced Simple@L5
Format settings, BVOP : 1
Format settings, QPel : No
Format settings, GMC : No warppoints
Format settings, Matrix : Custom
Codec ID : XVID
Codec ID/Hint : XviD
Duration : 1h 48mn
Bit rate : 821 Kbps
Width : 640 pixels
Height : 384 pixels
Display aspect ratio : 5:3
Frame rate : 23.976 (23976/1000) fps
Color space : YUV
Chroma subsampling : 4:2:0
Bit depth : 8 bits
Scan type : Progressive
Compression mode : Lossy
Bits/(Pixel*Frame) : 0.139
Stream size : 638 MiB (86%)
Writing library : XviD 73
Audio
ID : 1
Format : MPEG Audio
Format version : Version 1
Format profile : Layer 3
Codec ID : 55
Codec ID/Hint : MP3
Duration : 1h 48mn
Bit rate mode : Constant
Bit rate : 128 Kbps
Channel(s) : 2 channels
Sampling rate : 48.0 KHz
Compression mode : Lossy
Stream size : 99.6 MiB (13%)
Alignment : Aligned on interleaves
Interleave, duration : 42 ms (1.00 video frame)
Interleave, preload duratio : 504 ms
Writing library : LAME3.99r
Encoding settings : -m s -V 4 -q 2 -lowpass 17 -b 128
[cybertorrent.net].t433.torrent 
Торрент: Зарегистрирован [ 2019-03-18 13:08 ] · 924E52F1193F9340A2079A42CFDBFBBEBF67F304

Скачать .torrent

Скачать

15 KB

Статус: проверено
Скачан: 0 раз
Размер: 745 MB
terms.php
Показать сообщения:    

Текущее время: 09-Дек 06:10

Часовой пояс: UTC ± 0



Вы не можете начинать темы
Вы не можете отвечать на сообщения
Вы не можете редактировать свои сообщения
Вы не можете удалять свои сообщения
Вы не можете голосовать в опросах
Вы не можете прикреплять файлы к сообщениям
Вы можете скачивать файлы