Статистика раздачи
Размер:  1,47 GB   |    Зарегистрирован:  6 месяцев 29 дней   |    Скачан:  0 раз

Полного источника не было: Никогда

   
 

serzh ®

Пол:
Не указан
Стаж:
7 месяцев 4 дня
Сообщений:
384

Кодекс молчания / Закон молчания / Code of Silence
Страна: США
Жанр: боевик, криминал
Год выпуска: 1985
Продолжительность: 01:40:49

Перевод: Авторский (одноголосый закадровый) Леонид Володарский
Субтитры: нет
Режиссер: Эндрю Дэвис / Andrew Davis
В ролях: Чак Норрис, Генри Сильва, Берт Ремсен, Майк Дженовезе, Натан Дэвис, Ральф Фуди, Аллен Хэмилтон, Рон Энрикез, Джо Гузалдо
Описание: Очередная операция полиции Чикаго планировалась особенно тщательно. Дело того стоило: наконец-то появилась возможность взять с поличным печально знаменитую наркобанду Комачо. Но в момент передачи «товара» на месте сделки появляются представители конкурирующей группировки - люди Тони Луна. Завязывается перестрелка, в результате которой погибают два офицера, ранен сам Камачо, а партия наркотиков бесследно исчезает. Найти пропажу поручено детективу Эдди Кьюсаку, который решает действовать крайне осторожно и первым делом устанавливает наблюдение за Дайаной - дочерью Тони Луна...

Сэмпл: http://multi-up.com/1225890
Качество видео: BDRip (Исходник BDRemux 1080p)
Формат видео: AVI
Видео: XviD 73, 720x384, (1,85:1), 23,976 fps, 1888 Кбит/с, 8 бит, 0.29 bit/pixel
Аудио: Русский (АС3, 2 ch (Front: L R), 48,0 KHz, 192 Kbps)

MediaInfo

Общее
Полное имя : D:\Фильмы на трекер\Кодекс молчания (боевик, криминал 1985 год).avi
Формат : AVI
Формат/Информация : Audio Video Interleave
Размер файла : 1,47 Гбайт
Продолжительность : 1 ч. 40 м.
Общий поток : 2090 Кбит/сек
Программа кодирования : VirtualDubMod 1.5.10.2 (build 2540/release)
Библиотека кодирования : VirtualDubMod build 2540/release
Видео
Идентификатор : 0
Формат : MPEG-4 Visual
Профиль формата : Advanced Simple@L5
Параметр BVOP формата : 2
Параметр QPel формата : Нет
Параметр GMC формата : Без точки перехода
Параметр матрицы формата : Выборочная
Идентификатор кодека : XVID
Идентификатор кодека/Подсказка : XviD
Продолжительность : 1 ч. 40 м.
Битрейт : 1888 Кбит/сек
Ширина : 720 пикселей
Высота : 384 пикселя
Соотношение сторон : 1,85:1
Частота кадров : 23,976 (23976/1000) кадра/сек
Цветовое пространство : YUV
Субдискретизация насыщенности : 4:2:0
Битовая глубина : 8 бит
Тип развёртки : Прогрессивная
Метод сжатия : С потерями
Бит/(Пиксели*Кадры) : 0.285
Размер потока : 1,33 Гбайт (90%)
Библиотека кодирования : XviD 73
Аудио
Идентификатор : 1
Формат : AC-3
Формат/Информация : Audio Coding 3
Расширение режима : CM (complete main)
Параметр Endianness формата : Big
Идентификатор кодека : 2000
Продолжительность : 1 ч. 40 м.
Вид битрейта : Постоянный
Битрейт : 192 Кбит/сек
Каналы : 2 канала
Расположение каналов : Front: L R
Частота : 48,0 КГц
Частота кадров : 31,250 кадров/сек (1536 spf)
Метод сжатия : С потерями
Размер потока : 138 Мбайт (9%)
Выравнивание : Разделение по промежуткам
Продолжительность промежутка : 42 мс. (1,00 видеокадр)
Время предзагрузки промежутка : 500 мс.

Скриншот c названием фильма

Скриншоты

[cybertorrent.net].t429.torrent 
Торрент: Зарегистрирован [ 2019-03-18 13:08 ] · C0DE22932D627B4E36C694AC994B1E85F30D815D

Скачать .torrent

Скачать

15 KB

Статус: проверено
Скачан: 0 раз
Размер: 1,47 GB
terms.php
Профиль ЛС
Показать сообщения:    

Текущее время: 17-Окт 06:37

Часовой пояс: UTC ± 0



Вы не можете начинать темы
Вы не можете отвечать на сообщения
Вы не можете редактировать свои сообщения
Вы не можете удалять свои сообщения
Вы не можете голосовать в опросах
Вы не можете прикреплять файлы к сообщениям
Вы можете скачивать файлы