Статистика раздачи
Размер:  2,68 GB   |    Зарегистрирован:  8 месяцев 3 дня   |    Скачан:  0 раз

Полного источника не было: Никогда

 
     
 
 

Гость ®

Пол:
Не указан

По дороге с Норманом Ридусом / Ride with Norman Reedus
Год выпуска: 2019
Страна: США
Жанр: Документальный, путешествия
Продолжительность: ~ 00:43:00
Перевод: Профессиональный (двухголосый закадровый)[Gears Media]
Режиссёр: Джеф О'Брайан
В ролях: Норман Ридус, Лана Дель Рэй, Имоджин Лехтонен, Патрик Хоелк
Описание:
Сериал о путешествиях на мотоцикле, в котором Норман Ридус и приглашенная звезда недели путешествуют в определенную точку Америки на мотоцикле, изучая местную байк-культуру и места для мотоциклистов.
Ссылка на предыдущие и альтернативные раздачи: http://cybertorrent.ru/forum/tracker.php?nm=Ride%20with%20Norman%20Reedus
Сэмпл: http://multi-up.com/1225864
Качество: WEBRip
Формат: AVI
Видео: XviD, 720x400 at 29.970 fps, ~1500 kbps avg
Аудио1: Russian, MP3, 48 kHz, 2 ch, 128 kbps
Аудио2: English, MP3, 44.1 kHz, 2 ch, 128 kbps
Субтитры: нет
Реклама: аудио (два раза, в начале и конце, по 12 сек.)

MediaInfo

Format : AVI
Format/Info : Audio Video Interleave
File size : 548 MiB
Duration : 43 min 9 s
Overall bit rate : 1 775 kb/s
Writing application : Lavf58.20.100
Video
ID : 0
Format : MPEG-4 Visual
Format profile : Advanced Simple@L5
Format settings : BVOP1
Format settings, BVOP : 1
Format settings, QPel : No
Format settings, GMC : No warppoints
Format settings, Matrix : Default (H.263)
Codec ID : XVID
Codec ID/Hint : XviD
Duration : 43 min 8 s
Bit rate : 1 498 kb/s
Width : 720 pixels
Height : 400 pixels
Display aspect ratio : 16:9
Frame rate : 29.970 (30000/1001) FPS
Color space : YUV
Chroma subsampling : 4:2:0
Bit depth : 8 bits
Scan type : Progressive
Compression mode : Lossy
Bits/(Pixel*Frame) : 0.174
Stream size : 462 MiB (84%)
Writing library : XviD 67
Audio #1
ID : 1
Format : MPEG Audio
Format version : Version 1
Format profile : Layer 3
Format settings : Joint stereo / MS Stereo
Codec ID : 55
Codec ID/Hint : MP3
Duration : 43 min 9 s
Bit rate mode : Constant
Bit rate : 128 kb/s
Channel(s) : 2 channels
Sampling rate : 48.0 kHz
Compression mode : Lossy
Stream size : 39.5 MiB (7%)
Alignment : Aligned on interleaves
Interleave, duration : 24 ms (0.72 video frame)
Title : Gears Media
Writing library : LAME3.100ªªª
Audio #2
ID : 2
Format : MPEG Audio
Format version : Version 1
Format profile : Layer 3
Format settings : Joint stereo / MS Stereo
Codec ID : 55
Codec ID/Hint : MP3
Duration : 43 min 8 s
Bit rate mode : Constant
Bit rate : 128 kb/s
Channel(s) : 2 channels
Sampling rate : 44.1 kHz
Compression mode : Lossy
Stream size : 39.5 MiB (7%)
Alignment : Aligned on interleaves
Interleave, duration : 26 ms (0.78 video frame)

Скриншоты

Внимание! Раздача ведётся путём добавления новых серий

Внимание! Раздача ведётся путём добавления новых серий; при каждом добавлении создаётся новый торрент. Чтобы начать докачку новой серии, пользователям необходимо сделать следующее:
(1) остановить скачивание,
(2) удалить старый торрент у себя из клиента (старые серии удалять не надо),
(3) скачать новый торрент и запустить его у себя в клиенте вместо старого, при этом указать клиенту путь в старую папку куда и должно происходить скачивание новых серий.
Ваш клиент при этом должен произвести хеширование (проверку) старой папки (если не производит сам - помогите ему сделать это), и будет докачивать только те серии которых у вас ещё нет. Старые серии при этом не удаляются, а продолжают раздаваться!
Eсли вы уже удалили старые серии, то предотвратить повторную закачку старых серий можно, отжав галочку в соответствующих местах при запуске нового торрента. По возможности, желательно не удалять старые серии как можно дольше чтобы релизёр не столько продолжал раздавать старые серии, а смог сконцентрироваться на новых.
[cybertorrent.net].t426.torrent 
Торрент: Зарегистрирован [ 2019-03-18 13:08 ] · 49C49E78D02338E4D325E47EB3AC9CDEBE8D57A6

Скачать .torrent

Скачать

14 KB

Статус: проверено
Скачан: 0 раз
Размер: 2,68 GB
terms.php
Показать сообщения:    

Текущее время: 22-Ноя 07:57

Часовой пояс: UTC ± 0



Вы не можете начинать темы
Вы не можете отвечать на сообщения
Вы не можете редактировать свои сообщения
Вы не можете удалять свои сообщения
Вы не можете голосовать в опросах
Вы не можете прикреплять файлы к сообщениям
Вы можете скачивать файлы