Статистика раздачи
Размер:  689 MB   |    Зарегистрирован:  6 месяцев 28 дней   |    Скачан:  0 раз

Полного источника не было: Никогда

   
 

serzh ®

Пол:
Не указан
Стаж:
7 месяцев 3 дня
Сообщений:
384

Томка и его друзья / Tomka dhe shokët e tij
Страна: Албания
Жанр: драма, семейный
Год выпуска: 1977
Продолжительность: 01:13:51
Перевод: Одноголосый закадровый
Субтитры: русские
Оригинальная аудиодорожка: албанский
Режиссер: Джанфисе Кеко / Xhanfise Keko
В ролях: Sotiraq Çili, Pavlina Oça, Zehrudin Dokle, Xhelal Tafaj, Энеа Жегу / Enea Zhegu, Херион Мустафарай / Herion Mustafaraj, Генци Моша / Genci Mosha, Артан Путо / Artan Puto, Флуранц Илиа / Fluranc Ilia, Selma Sotillari
Описание: Томка и его команда наблюдают происходящую рядом с ними войну, собирают брошенное оружие и поют партизанские песни. Когда нацисты оккупировали деревню и расположились на их футбольном поле, мальчикам остается играть на каменистой улице рядом со злой собакой. Сытые этим по горло, они объединяются с местными повстанцами, чтобы шпионить за солдатами и помочь устроить нападение на врагов. Несмотря на очевидную опасность, они относятся к этому, как к забавной игре.
Сэмпл: http://multi-up.com/1225850
Качество видео: WEBRip
Формат видео: AVI
Видео: 640x480 (1.33:1), 25 fps, Intel ITU H.264 ~905 kbps avg, 0.12 bit/pixel
Аудио 1: 44.100 kHz, MPEG Layer 3, 2 ch, ~191.71 kbps avg (Русский)
Аудио 2: 44.100 kHz, MPEG Layer 3, 2 ch, ~192.00 kbps avg (Албанский)
Формат субтитров: softsub (SRT)
Доп. информация о субтитрах: Русские внешние (kidkong)

MediaInfo

Общее
Полное имя : F:\С моей озвучкой\Томка и его друзья\Tomka dhe Shoket e tij 1977.avi
Формат : AVI
Формат/Информация : Audio Video Interleave
Размер файла : 689 Мбайт
Продолжительность : 1 ч. 13 м.
Общий поток : 1305 Кбит/сек
Программа кодирования : VirtualDubModRus 1.5.10.2 (build 2542/release)
Библиотека кодирования : VirtualDubMod build 2542/release
Видео
Идентификатор : 0
Формат : AVC
Формат/Информация : Advanced Video Codec
Профиль формата : Main@L3
Параметр CABAC формата : Да
Параметр ReFrames формата : 3 кадра
Идентификатор кодека : H264
Продолжительность : 1 ч. 13 м.
Битрейт : 907 Кбит/сек
Ширина : 640 пикселей
Высота : 480 пикселей
Соотношение сторон : 4:3
Режим частоты кадров : Переменный
Частота кадров : 25,000 кадров/сек
Цветовое пространство : YUV
Субдискретизация насыщенности : 4:2:0
Битовая глубина : 8 бит
Тип развёртки : Прогрессивная
Бит/(Пиксели*Кадры) : 0.118
Размер потока : 479 Мбайт (69%)
Аудио #1
Идентификатор : 1
Формат : MPEG Audio
Версия формата : Version 1
Профиль формата : Layer 3
Режим : Joint stereo
Расширение режима : MS Stereo
Идентификатор кодека : 55
Идентификатор кодека/Подсказка : MP3
Продолжительность : 1 ч. 13 м.
Вид битрейта : Постоянный
Битрейт : 192 Кбит/сек
Каналы : 2 канала
Частота : 44,1 КГц
Метод сжатия : С потерями
Размер потока : 101 Мбайт (15%)
Выравнивание : Соединение по промежуткам
Продолжительность промежутка : 40 мс. (1,00 видеокадр)
Время предзагрузки промежутка : 522 мс.
Библиотека кодирования : LAME3.96
Аудио #2
Идентификатор : 2
Формат : MPEG Audio
Версия формата : Version 1
Профиль формата : Layer 3
Идентификатор кодека : 55
Идентификатор кодека/Подсказка : MP3
Продолжительность : 1 ч. 13 м.
Вид битрейта : Постоянный
Битрейт : 192 Кбит/сек
Каналы : 2 канала
Частота : 44,1 КГц
Метод сжатия : С потерями
Размер потока : 101 Мбайт (15%)
Выравнивание : Разделение по промежуткам
Продолжительность промежутка : 40 мс. (1,00 видеокадр)
Время предзагрузки промежутка : 500 мс.
Библиотека кодирования : LAME3.89 (alpha)

Скриншоты

[cybertorrent.net].t424.torrent 
Торрент: Зарегистрирован [ 2019-03-18 13:08 ] · AC0E51D988C6789F394B0825692B7E21BF53F795

Скачать .torrent

Скачать

14 KB

Статус: проверено
Скачан: 0 раз
Размер: 689 MB
terms.php
Профиль ЛС
Показать сообщения:    

Текущее время: 15-Окт 23:51

Часовой пояс: UTC ± 0



Вы не можете начинать темы
Вы не можете отвечать на сообщения
Вы не можете редактировать свои сообщения
Вы не можете удалять свои сообщения
Вы не можете голосовать в опросах
Вы не можете прикреплять файлы к сообщениям
Вы можете скачивать файлы