Статистика раздачи
Размер:  1,78 GB   |    Зарегистрирован:  6 месяцев 27 дней   |    Скачан:  0 раз

Полного источника не было: Никогда

   
 

солнышко ®

Пол:
Не указан
Стаж:
7 месяцев 2 дня
Сообщений:
565


Дэвид Брент: Жизнь в дороге/ David Brent: Life on the Road
«The boss is back»
- Страна: Великобритания, США
Студия: BBC Films, Entertainment One
Жанр: комедия, музыка
Год выпуска: 2016
Продолжительность: 01:35:58
Перевод: Одноголосый закадровый (Kirk Lazarus)
Субтитры: русские, английские
Оригинальная аудиодорожка: английская
Режиссер: Рики Джервэйс / Ricky Gervais
В ролях: Рики Джервэйс, Роб Джарвис, Эбби Мёрфи, Мандип Диллон, Джо Хартли, Эндрю Брук, Майлс Чапман, Том Беннетт, Ребекка Гетингс, Ким Бенсон
Описание: Действие фильма будет разворачиваться спустя 15 лет после событий сериала. Дэвид Брент, покинувший компанию Wernham Hogg, работает торговым представителем клининговой компании, но мечтает о карьере рок-звезды. Он отправляется в гастрольный тур по Великобритании, снимая о своем путешествии документальный фильм…

Тип релиза: HDRip [Neon_project] (David.Brent.Life.on.the.Road.2016.1080p.BluRay.x264-EiDER)
Контейнер: AVI
Видео: 720x384 (1.88:1), 23.976 fps, XviD build 50 ~2006 kbps avg, 0.30 bit/pixel
Аудио 1: 48 kHz, AC3 Dolby Digital, 2/0 (L,R) ch, ~192 kbps (русская)
Аудио 2: 48 kHz, AC3 Dolby Digital, 3/2 (L,C,R,l,r) + LFE ch, ~448 kbps (английская) отдельно
Формат субтитров: softsub (SRT)

MediaInfo

Общее
Полное имя : \David.Brent.Life.on.the.Road.2016.HDRip\David.Brent.Life.on.the.Road.2016.HDRip.avi
Формат : AVI
Формат/Информация : Audio Video Interleave
Размер файла : 1,48 Гбайт
Продолжительность : 1 ч. 35 м.
Общий поток : 2208 Кбит/сек
Название фильма : Дэвид Брент: Жизнь в дороге / David Brent: Life on the Road
Режиссёр : Рики Джервэйс / Ricky Gervais
Жанр : комедия, музыка
Программа кодирования : VirtualDubMod 1.5.10.3 | www.virtualdub-fr.org || (build 2550/release)
Формат оригинала/Имя : фильм
Примечание : Neon_project
Видео
Идентификатор : 0
Формат : MPEG-4 Visual
Профиль формата : Advanced Simple@L5
Настройки формата : BVOP1 / Custom Matrix
Параметр BVOP формата : 1
Параметр QPel формата : Нет
Параметр GMC формата : Без точки перехода
Параметр матрицы формата : Выборочная
Идентификатор кодека : XVID
Идентификатор кодека/Подсказка : XviD
Продолжительность : 1 ч. 35 м.
Битрейт : 2006 Кбит/сек
Ширина : 720 пикселей
Высота : 384 пикселя
Соотношение сторон : 1,85:1
Частота кадров : 23,976 (24000/1001) кадра/сек
Частота кадров в оригинале : 23,976 (23976/1000) кадра/сек
Цветовое пространство : YUV
Субдискретизация насыщенности : 4:2:0
Битовая глубина : 8 бит
Тип развёртки : Прогрессивная
Метод сжатия : С потерями
Бит/(Пиксели*Кадры) : 0.303
Размер потока : 1,34 Гбайт (91%)
Библиотека кодирования : XviD 1.2.1 (UTC 2008-12-04)
Аудио
Идентификатор : 1
Формат : AC-3
Формат/Информация : Audio Coding 3
Идентификатор кодека : 2000
Продолжительность : 1 ч. 35 м.
Вид битрейта : Постоянный
Битрейт : 192 Кбит/сек
Каналы : 2 канала
Расположение каналов : Front: L R
Частота : 48,0 КГц
Частота кадров : 31,250 кадров/сек (1536 SPF)
Битовая глубина : 16 бит
Метод сжатия : С потерями
Размер потока : 132 Мбайт (9%)
Выравнивание : Разделение по промежуткам
Продолжительность промежутка : 42 мс. (1,00 видеокадр)
Время предзагрузки промежутка : 500 мс.
ServiceKind/String : Complete Main

Скриншот c названием фильма

Скриншоты


[cybertorrent.net].t421.torrent 
Торрент: Зарегистрирован [ 2019-03-18 13:08 ] · 86F3B1BF2F75FCA6AB720A7B05104346731B3657

Скачать .torrent

Скачать

19 KB

Статус: проверено
Скачан: 0 раз
Размер: 1,78 GB
terms.php
Профиль ЛС
Показать сообщения:    

Текущее время: 15-Окт 07:09

Часовой пояс: UTC ± 0



Вы не можете начинать темы
Вы не можете отвечать на сообщения
Вы не можете редактировать свои сообщения
Вы не можете удалять свои сообщения
Вы не можете голосовать в опросах
Вы не можете прикреплять файлы к сообщениям
Вы можете скачивать файлы