Статистика раздачи
Размер:  1,37 GB   |    Зарегистрирован:  6 месяцев 27 дней   |    Скачан:  0 раз

Полного источника не было: Никогда

   
 

serzh ®

Пол:
Не указан
Стаж:
7 месяцев 2 дня
Сообщений:
384

Отчаянный риск / Первостепенный риск / Неудавшаяся махинация / Prime Risk
[FullScreen]
Страна: США
Жанр: боевик, приключения
Год выпуска: 1985
Продолжительность: 01:38:28
Перевод: Одноголосый закадровый
Субтитры: нет
Режиссер: Майкл Фаркас / Michael Farkas
В ролях: Ли Монтгомери, Тони Хадсон, Сэм Боттомс, Клу Гулагер, Кинен Уинн, Луис Холл, Рик Раковски, Джон Лайкс, Рэнди Перлман
Описание: Двое знакомых, парень с девушкой, промышляющие обдиранием банкоматов, случайно становятся невольными участниками заговора, цель которого - разрушение денежной системы США....
Сэмпл: https://yadi.sk/i/4AQ_xaflhS8Qkg
Качество видео: VHSRip
Формат видео: AVI
Видео: 640x480 (1.33:1), 25 fps, XviD build 73 ~1787 kbps avg, 0.23 bit/pixel
Аудио: 48 kHz, AC3 Dolby Digital, 2/0 (L,R) ch, ~192 kbps

MediaInfo

Отчаянный риск Prime Risk (by Edich2).avi
Format : AVI
Format/Info : Audio Video Interleave
File size : 1.37 GiB
Duration : 1 h 38 min
Overall bit rate : 1 990 kb/s
Movie name : Отчаянный риск Prime Risk (by Edich2)
Director : by Edich2
Writing application : VirtualDubMod 1.5.10.3 | www.virtualdub-fr.org || (build 2550/release)
Comment : RuTracker.org
Video
ID : 0
Format : MPEG-4 Visual
Format profile : Advanced Simple@L5
Format settings : BVOP1 / Custom Matrix
Format settings, BVOP : 1
Format settings, QPel : No
Format settings, GMC : No warppoints
Format settings, Matrix : Custom
Codec ID : XVID
Codec ID/Hint : XviD
Duration : 1 h 38 min
Bit rate : 1 788 kb/s
Width : 640 pixels
Height : 480 pixels
Display aspect ratio : 4:3
Frame rate : 25.000 FPS
Color space : YUV
Chroma subsampling : 4:2:0
Bit depth : 8 bits
Scan type : Progressive
Compression mode : Lossy
Bits/(Pixel*Frame) : 0.233
Stream size : 1.23 GiB (90%)
Writing library : XviD 73
Audio
ID : 1
Format : AC-3
Format/Info : Audio Coding 3
Codec ID : 2000
Duration : 1 h 38 min
Bit rate mode : Constant
Bit rate : 192 kb/s
Channel(s) : 2 channels
Channel positions : Front: L R
Sampling rate : 48.0 kHz
Frame rate : 31.250 FPS (1536 SPF)
Bit depth : 16 bits
Compression mode : Lossy
Stream size : 135 MiB (10%)
Alignment : Split accross interleaves
Interleave, duration : 40 ms (1.00 video frame)
Interleave, preload duratio : 500 ms
Service kind : Complete Main

Скриншоты


[cybertorrent.net].t415.torrent 
Торрент: Зарегистрирован [ 2019-03-18 10:04 ] · 8F54F9D2BBEE0F7DB7EA2810F3E642D18F38DE8C

Скачать .torrent

Скачать

14 KB

Статус: проверено
Скачан: 0 раз
Размер: 1,37 GB
terms.php
Профиль ЛС
Показать сообщения:    

Текущее время: 15-Окт 06:17

Часовой пояс: UTC ± 0



Вы не можете начинать темы
Вы не можете отвечать на сообщения
Вы не можете редактировать свои сообщения
Вы не можете удалять свои сообщения
Вы не можете голосовать в опросах
Вы не можете прикреплять файлы к сообщениям
Вы можете скачивать файлы