Статистика раздачи
Размер:  1,46 GB   |    Зарегистрирован:  7 месяцев 29 дней   |    Скачан:  0 раз

Полного источника не было: Никогда

 
     
 
 

Гость ®

Пол:
Не указан

Русичи
Год выпуска: 2008
Жанр: фэнтези, приключения, семейный
Продолжительность: 01:30:29.240 (135731 frames)
Субтитры: нет
Режиссер: Адель Аль-Хадад
В ролях: Антон Колесников, Сергей Глушко, Владимир Гостюхин, Петр Баранчеев, Сергей Кудряшов, Денис Карасев, Макс Максимов, Кристина Прокопович, Александр Трофимов, Альберт Филозов
Описание: На заставу Стрижень нападают воины Черного Кудесника, берут в плен князя Изяслава и смертельно ранят его сына Властимира. Но от ран его излечивает Белый Колдун, дочь которого, Настя, влюбляется в главного героя. Излечившись, Властимир обзаводится друзьями, узнает, что отец жив, и отправляется вызволять его из плена. Героям предстоит преодолеть на своем пути немало препятствий, столкнуться с врагами и предателями, выйти с честью из всех передряг и вернуться в Стрижень победителями.
Качество: BDRip
Формат: AVI
Видео кодек: XviD
Аудио кодек: АС3
Видео: 720x400 (1.80:1), 25 fps, XviD build 73 ~1846 kbps avg, 0.26 bit/pixel
Аудио: 48 kHz, AC3 Dolby Digital, 3/2 (L,C,R,l,r) + LFE ch, ~448.00 kbps avg

Медиаинфо

General
Complete name : E:\004 Мои раздачи\Русичи 1,46\rusichi_1.46_by_bm11.avi
Format : AVI
Format/Info : Audio Video Interleave
File size : 1.46 GiB
Duration : 1h 30mn
Overall bit rate : 2 305 Kbps
Director : bm11
Writing application : VirtualDubMod 1.5.10.3 | www.virtualdub-fr.org || (build 2550/release)
Video
ID : 0
Format : MPEG-4 Visual
Format profile : Advanced Simple@L5
Format settings, BVOP : 1
Format settings, QPel : No
Format settings, GMC : No warppoints
Format settings, Matrix : Custom
Codec ID : XVID
Codec ID/Hint : XviD
Duration : 1h 30mn
Bit rate : 1 847 Kbps
Width : 720 pixels
Height : 400 pixels
Display aspect ratio : 16:9
Frame rate : 25.000 fps
Color space : YUV
Chroma subsampling : 4:2:0
Bit depth : 8 bits
Scan type : Progressive
Compression mode : Lossy
Bits/(Pixel*Frame) : 0.257
Stream size : 1.17 GiB (80%)
Writing library : XviD 73
Audio
ID : 1
Format : AC-3
Format/Info : Audio Coding 3
Mode extension : CM (complete main)
Format settings, Endianness : Big
Codec ID : 2000
Duration : 1h 30mn
Bit rate mode : Constant
Bit rate : 448 Kbps
Channel(s) : 6 channels
Channel positions : Front: L C R, Side: L R, LFE
Sampling rate : 48.0 KHz
Frame rate : 31.250 fps (1536 spf)
Compression mode : Lossy
Stream size : 290 MiB (19%)
Alignment : Split accross interleaves
Interleave, duration : 40 ms (1.00 video frame)
Interleave, preload duratio : 500 ms

Сравнение

http://cybertorrent.ru/forum/viewtopic.php?t=2051114
http://screenshotcomparison.com/comparison/131698/picture:3
картинка по качеству примерно одинакова, в старой раздаче лишь немного шарпа, пару пикселей отрезана лишнего и звук зачем-то ужат до 384
[cybertorrent.net].t413.torrent 
Торрент: Зарегистрирован [ 2019-03-18 10:04 ] · C524D1295508BDCB79A8C8FAF2BF43E7F130F023

Скачать .torrent

Скачать

15 KB

Статус: проверено
Скачан: 0 раз
Размер: 1,46 GB
terms.php
Показать сообщения:    

Текущее время: 16-Ноя 21:50

Часовой пояс: UTC ± 0



Вы не можете начинать темы
Вы не можете отвечать на сообщения
Вы не можете редактировать свои сообщения
Вы не можете удалять свои сообщения
Вы не можете голосовать в опросах
Вы не можете прикреплять файлы к сообщениям
Вы можете скачивать файлы