Статистика раздачи
Размер:  811 MB   |    Зарегистрирован:  4 месяца 14 дней   |    Скачан:  0 раз

Полного источника не было: Никогда

 
     
 
 

Гость ®

Пол:
Не указан

Новые приключения капитана Врунгеля
Жанр: детский фильм, комедия, приключения, экранизация
Год выпуска: 1979
Продолжительность: 01:16:50
Режиссёр: Геннадий Васильев
В ролях: Михаил Пуговкин, Зураб Капианидзе, Сергей Мартинсон, Владимир Басов, Савелий Крамаров, Аркадий Маркин, Рудольф Рудин, Ксения Турчан
Описание: По мотивам повести А. Некрасова «Приключения капитана Врунгеля».
Получив задание написать сочинение на тему "Как я провел лето", Вася Лопотухин расслабился, вспомнил своего любимого героя капитана Врунгеля, представил себя рядом с ним внутри Бермудского треугольника и вступил в смертельную схватку с гангстерами и штормом. Раскрыв тайну Бермуд и одержав ряд побед, Вася произвел себя в чин известного ученого и стал собирать экспедицию к Атлантиде...
Доп. информация: Запись со спутника Eutelsat 36A/B, телеканал "Любимое кино".
Сэмпл: http://multi-up.com/1235297
Релиз:
Качество видео: DVB
Формат видео: MKV
Видео: MPEG-4 AVC, 720x576i, 25.000 fps, 1286 kbps
Аудио: Русский (MPEG Audio 2.0, 48 kHz, 160 kbps)

MediaInfo

Общее
Уникальный идентификатор : 188597314589981493302784764032784169417
(0x8DE28584F48CF47FB36B7ED84DB279C9)
Полное имя : E:\Новые_приключения_капитана_Врунгеля_1978_DVB.mkv
Формат : Matroska
Версия формата : Version 2
Размер файла : 811 Мбайт
Продолжительность : 1 ч. 16 м.
Общий поток : 1475 Кбит/сек
Дата кодирования : UTC 2019-06-23 10:13:53
Программа кодирования : mkvmerge v5.6.0 ('Kenya Kane') built on May 27 2012
16:44:04
Библиотека кодирования : libebml v1.2.3 + libmatroska v1.3.0
Видео
Идентификатор : 1
Формат : AVC
Формат/Информация : Advanced Video Codec
Профиль формата : High@L3
Настройки формата : CABAC / 4 Ref Frames
Параметр CABAC формата : Да
Параметр RefFrames формата : 4 кадра
Идентификатор кодека : V_MPEG4/ISO/AVC
Продолжительность : 1 ч. 16 м.
Битрейт : 1286 Кбит/сек
Ширина : 720 пикселей
Высота : 576 пикселей
Соотношение сторон : 4:3
Соотношение сторон в оригинале : 4:3
Режим частоты кадров : Постоянный
Частота кадров : 25,000 кадров/сек
Стандарт вещания : Component
Цветовое пространство : YUV
Субдискретизация насыщенности : 4:2:0
Битовая глубина : 8 бит
Тип развёртки : Чересстрочная
Метод сохранения типа развёртки : Раздельные поля
Порядок развёртки : Верхнее поле первое
Бит/(Пиксели*Кадры) : 0.124
Размер потока : 707 Мбайт (87%)
Default : Да
Forced : Нет
Цветовой диапазон : Limited
Основные цвета : BT.601 PAL
Характеристики трансфера : BT.470 System B/G
Коэффициенты матрицы : BT.470 System B/G
Аудио
Идентификатор : 2
Формат : MPEG Audio
Версия формата : Version 1
Профиль формата : Layer 2
Идентификатор кодека : A_MPEG/L2
Идентификатор кодека/Подсказка : MP2
Продолжительность : 1 ч. 16 м.
Вид битрейта : Постоянный
Битрейт : 160 Кбит/сек
Каналы : 2 канала
Частота : 48,0 КГц
Метод сжатия : С потерями
Задержка видео : 33 мс.
Размер потока : 87,9 Мбайт (11%)
Язык : Russian
Default : Да
Forced : Нет

Скриншот c названием фильма

Скриншоты

[cybertorrent.net].t4115.torrent 
Торрент: Зарегистрирован [ 2019-07-03 15:51 ] · 038D472014094C679162EEA0FA6A374B674E8903

Скачать .torrent

Скачать

16 KB

Статус: проверено
Скачан: 0 раз
Размер: 811 MB
terms.php
Показать сообщения:    

Текущее время: 18-Ноя 11:50

Часовой пояс: UTC ± 0



Вы не можете начинать темы
Вы не можете отвечать на сообщения
Вы не можете редактировать свои сообщения
Вы не можете удалять свои сообщения
Вы не можете голосовать в опросах
Вы не можете прикреплять файлы к сообщениям
Вы можете скачивать файлы