Статистика раздачи
Размер:  2,14 GB   |    Зарегистрирован:  7 месяцев 25 дней   |    Скачан:  0 раз

Полного источника не было: Никогда

 
     
 
 

serzh ®

Пол:
Не указан
Стаж:
8 месяцев
Сообщений:
384

Возвращение Джанго / Джанго снова наносит удар
Django's Rückkehr / Django 2: Il grande ritorno / Django Strikes Again

Страна: Италия
Жанр: вестерн
Год выпуска: 1987
Продолжительность: 01:36:17
Перевод: Одноголосый закадровый неизвестного Немца
Субтитры: нет
Оригинальная аудиодорожка: английский
Режиссер: Тед Арчер /Ted Archer/
В ролях: Франко Неро /Franco Nero/, Кристофер Коннелли /Christopher Connelly/, Лусиа Ли Лайон /Lucia Lee Lyon/, Уильям Бергер /William Berger/, Роберт (Роберто) Поссе /Robert Posse/, Алессандро Ди Чио /Alessandro Di Chio/, Родриго Обрегон /Rodrigo Obregon/, Доналд Плезенс /Donald Pleasence/, Консуэло Рейна /Consuelo Reina/, Билл Мур /Bill Moore/, Микки /Micky/
Рецензия Михаила Иванова: Джанго, герой спаггетти-вестерна, созданный Серджио Корбуччи в образе Франко Неро, после баталий первого фильма ушел с горя в монастырь. Но в один прекрасный день к нему приезжает больная женщина и сообщает, что у нее от Джанго есть дочь Марисоль. Вскоре она умирает, Джанго идет искать свою дочь и узнает, что злой работорговец сеет смерть и горе по всему краю. Джанго тоже попадает на рудники, узнав, что его дочь стала собственностью негодяя. Долго он, конечно, там сидеть не стал, откопал свой пулемет, и боевые действия начинаются. На этот раз у Джанго было что-то вроде тачанки. Первый фильм, конечно, лучше.
Доп. информация: исходник от dvdbox; Немца оцифровал и подготовил karlll
~СЭМПЛ~
Качество видео: DVDRip-AVC
Формат видео: MKV
Видео: MPEG4 Video (H264) 656x400 23.976fps 2797Kbps
Аудио 1: Dolby AC3 48KHz 2ch 192Kbps - Немец
Аудио 2: Dolby AC3 48KHz 2ch 192Kbps - Original Eng

MediaInfo

Format : Matroska
Format version : Version 2
File size : 2.14 GiB
Duration : 1 h 36 min
Overall bit rate : 3 183 kb/s
Movie name : Djangos Rückkehr / Django 2: Il grande ritorno / Django Strikes Again_1987_KBC
Encoded date : UTC 2019-03-07 22:10:44
Writing application : mkvmerge v6.9.1 ('Blue Panther') 32bit built on Apr 18 2014 18:15:44
Writing library : libebml v1.3.0 + libmatroska v1.4.1
Video
ID : 1
Format : AVC
Format/Info : Advanced Video Codec
Format profile : High@L3.1
Format settings : CABAC / 7 Ref Frames
Format settings, CABAC : Yes
Format settings, RefFrames : 7 frames
Codec ID : V_MPEG4/ISO/AVC
Duration : 1 h 36 min
Bit rate : 2 797 kb/s
Width : 656 pixels
Height : 400 pixels
Display aspect ratio : 16:10
Frame rate mode : Constant
Frame rate : 23.976 (24000/1001) FPS
Color space : YUV
Chroma subsampling : 4:2:0
Bit depth : 8 bits
Scan type : Progressive
Bits/(Pixel*Frame) : 0.445
Stream size : 1.84 GiB (86%)
Title : Django 2: Il grande ritorno (1987)
Writing library : x264 core 152 r2851kMod ba24899
Encoding settings : cabac=1 / ref=7 / deblock=1:-1:-1 / analyse=0x3:0x113 / me=umh / subme=9 / psy=1 / fade_compensate=0.00 / psy_rd=1.00:0.20 / mixed_ref=1 / me_range=24 / chroma_me=1 / trellis=2 / 8x8dct=1 / cqm=0 / deadzone=21,11 / fast_pskip=0 / chroma_qp_offset=-3 / threads=6 / lookahead_threads=1 / sliced_threads=0 / nr=0 / decimate=0 / interlaced=0 / bluray_compat=0 / constrained_intra=0 / bframes=7 / b_pyramid=2 / b_adapt=2 / b_bias=0 / direct=3 / weightb=1 / open_gop=0 / weightp=2 / keyint=250 / keyint_min=23 / scenecut=40 / intra_refresh=0 / rc_lookahead=50 / rc=2pass / mbtree=1 / bitrate=2797 / ratetol=1.0 / qcomp=0.60 / qpmin=0 / qpmax=69 / qpstep=4 / cplxblur=20.0 / qblur=0.5 / vbv_maxrate=14000 / vbv_bufsize=14000 / nal_hrd=none / filler=0 / ip_ratio=1.40 / aq=1:1.00
Language : Italian
Default : Yes
Forced : No
Audio #1
ID : 2
Format : AC-3
Format/Info : Audio Coding 3
Commercial name : Dolby Digital
Codec ID : A_AC3
Duration : 1 h 36 min
Bit rate mode : Constant
Bit rate : 192 kb/s
Channel(s) : 2 channels
Channel layout : L R
Sampling rate : 48.0 kHz
Frame rate : 31.250 FPS (1536 SPF)
Bit depth : 16 bits
Compression mode : Lossy
Stream size : 132 MiB (6%)
Title : Немец
Language : Russian
Service kind : Complete Main
Default : Yes
Forced : No
Audio #2
ID : 3
Format : AC-3
Format/Info : Audio Coding 3
Commercial name : Dolby Digital
Codec ID : A_AC3
Duration : 1 h 36 min
Bit rate mode : Constant
Bit rate : 192 kb/s
Channel(s) : 2 channels
Channel layout : L R
Sampling rate : 48.0 kHz
Frame rate : 31.250 FPS (1536 SPF)
Bit depth : 16 bits
Compression mode : Lossy
Stream size : 132 MiB (6%)
Title : English
Language : English
Service kind : Complete Main
Default : No
Forced : No

Скриншоты

[cybertorrent.net].t411.torrent 
Торрент: Зарегистрирован [ 2019-03-18 10:04 ] · 6B6F65D03DCE143536FEDDD332AE0D00EF380C53

Скачать .torrent

Скачать

11 KB

Статус: проверено
Скачан: 0 раз
Размер: 2,14 GB
terms.php
Профиль ЛС
Показать сообщения:    

Текущее время: 13-Ноя 00:06

Часовой пояс: UTC ± 0



Вы не можете начинать темы
Вы не можете отвечать на сообщения
Вы не можете редактировать свои сообщения
Вы не можете удалять свои сообщения
Вы не можете голосовать в опросах
Вы не можете прикреплять файлы к сообщениям
Вы можете скачивать файлы