Статистика раздачи
Размер:  1,38 GB   |    Зарегистрирован:  6 месяцев 28 дней   |    Скачан:  0 раз

Полного источника не было: Никогда

   
 

Гость ®

Пол:
Не указан

Таможня
Студия: Ленфильм, Первое творческое объединение
Жанр: детектив, криминал, приключения
Год выпуска: 1982
Продолжительность: 01:13:58
Режиссер: Александр Муратов
В ролях: Михаил Боярский, Валентин Гафт, Вадим Яковлев, Владимир Ерёмин, Татьяна Ташкова, Валерий Захарьев, Юрий Башков, Виктор Ильичёв, Иван Краско, Вячеслав Сорокин, Константин Бутаев, Герберт Дмитриев, Любовь Малиновская
Описание: На теплоходе "Амур" во время рейса пропал моторист. При таможенном досмотре в машинном отделении находят контрабандное золото, после чего бесследно исчезает судовой врач Малышев. Клубок этих загадочных событий и предстоит распутать новому сотруднику - молодому таможеннику Юрию Хорунжеву...
Дополнительная информация:
Автор релиза -
Источник для рипа - DVD5 - спасибо torrentarus
Источник субтитров - DVB 576i TS - моя запись с канала "ТВ Центр"
Автор русских субтитров - Пащенко Л.В. / "ТВ Центр", 2005г.




Рекламы нет!
Качество видео: DVDRip
Формат видео: AVI
Видео: XviD, 688x512 (4:3), 25.000 fps, 2270 kbps, 0.258 bit/pixel
Аудио: Русский АС3, 48000 Гц, 2ch, 192 kbps
Формат субтитров: softsub (SRT)

MediaInfo

Общее
Полное имя : D:\Таможня.1982.DVDRip-ylnian\Таможня.1982.DVDRip-ylnian.avi
Формат : AVI
Формат/Информация : Audio Video Interleave
Размер файла : 1,38 Гбайт
Продолжительность : 1 ч. 13 м.
Общий поток : 2663 Кбит/сек
Программа кодирования : VirtualDubMod 1.5.10.3 | www.virtualdub-fr.org || (build 2550/release)
Библиотека кодирования : VirtualDubMod build 2550/release
Видео
Идентификатор : 0
Формат : MPEG-4 Visual
Профиль формата : Advanced Simple@L5
Настройки формата : BVOP1 / Custom Matrix
Параметр BVOP формата : 1
Параметр QPel формата : Нет
Параметр GMC формата : Без точки перехода
Параметр матрицы формата : Выборочная
Идентификатор кодека : XVID
Идентификатор кодека/Подсказка : XviD
Продолжительность : 1 ч. 13 м.
Битрейт : 2270 Кбит/сек
Ширина : 688 пикселей
Высота : 512 пикселей
Соотношение сторон : 4:3
Частота кадров : 25,000 кадров/сек
Цветовое пространство : YUV
Субдискретизация насыщенности : 4:2:0
Битовая глубина : 8 бит
Тип развёртки : Прогрессивная
Метод сжатия : С потерями
Бит/(Пиксели*Кадры) : 0.258
Размер потока : 1,17 Гбайт (85%)
Библиотека кодирования : XviD 67
Аудио
Идентификатор : 1
Формат : AC-3
Формат/Информация : Audio Coding 3
Коммерческое название : Dolby Digital
Идентификатор кодека : 2000
Продолжительность : 1 ч. 13 м.
Вид битрейта : Постоянный
Битрейт : 384 Кбит/сек
Каналы : 5 каналов
Channel layout : L R C Ls Rs
Частота : 48,0 КГц
Частота кадров : 31,250 кадров/сек (1536 SPF)
Битовая глубина : 16 бит
Метод сжатия : С потерями
Размер потока : 203 Мбайт (14%)
Выравнивание : Разделение по промежуткам
Продолжительность промежутка : 40 мс. (1,00 видеокадр)
Время предзагрузки промежутка : 500 мс.
ServiceKind/String : Complete Main
Общее
Полное имя : D:\Таможня.1982.DVDRip-ylnian\Таможня.1982.DVDRip-ylnian_rus.srt
Формат : SubRip
Размер файла : 49,8 Кбайт
Текст
Формат : SubRip
Метод сжатия : Без потерь
[cybertorrent.net].t407.torrent 
Торрент: Зарегистрирован [ 2019-03-18 10:04 ] · 04F1BB4380F4F88C6B27F84B995184C239496398

Скачать .torrent

Скачать

14 KB

Статус: проверено
Скачан: 0 раз
Размер: 1,38 GB
terms.php
Показать сообщения:    

Текущее время: 15-Окт 20:57

Часовой пояс: UTC ± 0



Вы не можете начинать темы
Вы не можете отвечать на сообщения
Вы не можете редактировать свои сообщения
Вы не можете удалять свои сообщения
Вы не можете голосовать в опросах
Вы не можете прикреплять файлы к сообщениям
Вы можете скачивать файлы