Статистика раздачи
Размер:  1,37 GB   |    Зарегистрирован:  7 месяцев 26 дней   |    Скачан:  0 раз

Полного источника не было: Никогда

 
     
 
 

serzh ®

Пол:
Не указан
Стаж:
8 месяцев 1 день
Сообщений:
384

Ангелы-хранители / Наблюдатели / Псы / Watchers
«Secret experiment, Unstoppable monster, Deadly mistake...»
Страна: Канада
Жанр: Фантастика, ужасы
Год выпуска: 1988
Продолжительность: 01:26:59
Перевод: Авторский (одноголосый закадровый) Андрей Дольский
Субтитры: нет
Режиссер: Джон Хесс / Jon Hess
В ролях: Майкл Айронсайд, Кристофер Кэри, Грэм Кэмпбелл, Дэн О’Дауд, Лала Слоутмен, Кори
Хэйм, Дейл Уилсон, Блу Манкума, Коллин Уинтон, Дункан Фрайзер
Описание: Во время пожара из секретной лаборатории Пентагона сбежала мыслящая собака по
кличке Эйнштейн, умеющая писать и читать. Встретив Трэвиса Кэмпбелла, Эйнштейн привязался к
нему. Но вскоре там где побывали подросток и пес стали находить страшно изуродованные трупы
с выдавленными глазами.
Это в погоню за Эйнштейном устремился жуткий монстр с генами человека и дикого животного,
порождение экспериментов военных в области генной инженерии. Движимый инстинктом он
убивает всех, кого повстречал на своем пути Эйнштейн.
Агент ФБР Лем Джонсон получает задание вернуть Эйнштейна. Но Джонсон оказывается еще
более страшным монстром, чудовищем в человеческом облике. Смертельная опасность грозит
Эйнштейну, Трэвису и всем его близким.
Доп. информация: Дорожка с А. Дольским синхронизирована и наложена ale_x2008 при помощи Adobe Audition, Sony Vegas и VirtualDubMod. Восстановлено перегруженное аудио (-6 db)
За оцифрованную с VHS дорожку благодарим - ALEX150379

Релиз
Сэмпл: https://yadi.sk/i/CKoxYsZlao8dGA
Качество видео: DVDRip
Формат видео: AVI
Видео: XviD build 73, 720x384 (1.88:1), 25 fps, 2049 kbps avg, 0.3 bit/pixel
Аудио: AC3 Dolby Digital, 48000Hz, 2/0 (L,R) ch (mono), 192 kbps avg

MediaInfo

Наблюдатели - Watchers (by ale_x2008).avi
Format : AVI
Format/Info : Audio Video Interleave
File size : 1.37 GiB
Duration : 1 h 26 min
Overall bit rate : 2 252 kb/s
Movie name : Наблюдатели - Watchers (by ale_x2008)
Director : by ale_x2008
Writing application : VirtualDubMod 1.5.10.2 (build 2540/release)
Copyright : Edich2
Comment : RuTracker.org
Video
ID : 0
Format : MPEG-4 Visual
Format profile : Advanced Simple@L5
Format settings : BVOP1 / Custom Matrix
Format settings, BVOP : 1
Format settings, QPel : No
Format settings, GMC : No warppoints
Format settings, Matrix : Custom
Codec ID : XVID
Codec ID/Hint : XviD
Duration : 1 h 26 min
Bit rate : 2 050 kb/s
Width : 720 pixels
Height : 384 pixels
Display aspect ratio : 1.85:1
Frame rate : 25.000 FPS
Color space : YUV
Chroma subsampling : 4:2:0
Bit depth : 8 bits
Scan type : Progressive
Compression mode : Lossy
Bits/(Pixel*Frame) : 0.297
Stream size : 1.25 GiB (91%)
Writing library : XviD 73
Audio
ID : 1
Format : AC-3
Format/Info : Audio Coding 3
Codec ID : 2000
Duration : 1 h 26 min
Bit rate mode : Constant
Bit rate : 192 kb/s
Channel(s) : 2 channels
Channel positions : Front: L R
Sampling rate : 48.0 kHz
Frame rate : 31.250 FPS (1536 SPF)
Bit depth : 16 bits
Compression mode : Lossy
Stream size : 119 MiB (9%)
Alignment : Split accross interleaves
Interleave, duration : 40 ms (1.00 video frame)
Interleave, preload duratio : 500 ms
Service kind : Complete Main

Скриншоты


[cybertorrent.net].t398.torrent 
Торрент: Зарегистрирован [ 2019-03-18 10:04 ] · A289DCD0917AC456F9703925C96286904A0E0488

Скачать .torrent

Скачать

14 KB

Статус: проверено
Скачан: 0 раз
Размер: 1,37 GB
terms.php
Профиль ЛС
Показать сообщения:    

Текущее время: 14-Ноя 04:05

Часовой пояс: UTC ± 0



Вы не можете начинать темы
Вы не можете отвечать на сообщения
Вы не можете редактировать свои сообщения
Вы не можете удалять свои сообщения
Вы не можете голосовать в опросах
Вы не можете прикреплять файлы к сообщениям
Вы можете скачивать файлы