Статистика раздачи
Размер:  77 MB   |    Зарегистрирован:  5 месяцев 14 дней   |    Скачан:  0 раз

Полного источника не было: Никогда

 
     
 
 

Гость ®

Пол:
Не указан

Репа
Страна: Россия
Жанр: мультфильм
Продолжительность: 00:11:38
Год выпуска: 2018
Режиссёры: Ришат Гильметдинов, Александр Караваев
Описание: Шуточная музыкальная вариация русской народной сказки "Репка".
Качество: WEBRip
Формат: AVI
Видео: 785 kbps, 720х400 (16:9), 25.000 fps, MPEG-4 Visual (XviD)
Аудио: 128 kbps, 44.1 kHz, 2 channels, MPEG Audio (MP3)
Субтитры: отсутствуют

Подробные технические данные

General
Complete name : Репа (2018).avi
Format : AVI
Format/Info : Audio Video Interleave
File size : 77.1 MiB
Duration : 11mn 38s
Overall bit rate : 925 Kbps
Writing application : Lavf55.19.104
Video
ID : 0
Format : MPEG-4 Visual
Format profile : Simple@L3
Format settings, BVOP : No
Format settings, QPel : No
Format settings, GMC : No warppoints
Format settings, Matrix : Default (H.263)
Codec ID : XVID
Codec ID/Hint : XviD
Duration : 11mn 38s
Bit rate : 785 Kbps
Width : 720 pixels
Height : 400 pixels
Display aspect ratio : 16:9
Frame rate : 25.000 fps
Color space : YUV
Chroma subsampling : 4:2:0
Bit depth : 8 bits
Scan type : Progressive
Compression mode : Lossy
Bits/(Pixel*Frame) : 0.109
Stream size : 65.4 MiB (85%)
Writing library : XviD 73
Audio
ID : 1
Format : MPEG Audio
Format version : Version 1
Format profile : Layer 3
Mode : Joint stereo
Mode extension : MS Stereo
Codec ID : 55
Codec ID/Hint : MP3
Duration : 11mn 38s
Bit rate mode : Constant
Bit rate : 128 Kbps
Channel(s) : 2 channels
Sampling rate : 44.1 KHz
Compression mode : Lossy
Stream size : 10.6 MiB (14%)
Alignment : Aligned on interleaves
Interleave, duration : 26 ms (0.65 video frame)

Скриншоты

[cybertorrent.net].t3978.torrent 
Торрент: Зарегистрирован [ 2019-06-28 15:49 ] · AECF426E302C12C29B9B4083119C7C6C12BA6029

Скачать .torrent

Скачать

13 KB

Статус: проверено
Скачан: 0 раз
Размер: 77 MB
terms.php
Показать сообщения:    

Текущее время: 12-Дек 20:12

Часовой пояс: UTC ± 0



Вы не можете начинать темы
Вы не можете отвечать на сообщения
Вы не можете редактировать свои сообщения
Вы не можете удалять свои сообщения
Вы не можете голосовать в опросах
Вы не можете прикреплять файлы к сообщениям
Вы можете скачивать файлы